<?xml version="1.0" standalone="no"?>
<!DOCTYPE svg PUBLIC "-//W3C//DTD SVG 1.1//EN" "http://www.w3.org/Graphics/SVG/1.1/DTD/svg11.dtd" >
<svg xmlns="http://www.w3.org/2000/svg" xmlns:xlink="http://www.w3.org/1999/xlink" version="1.1">
<metadata>
Created by FontForge 20201107 at Thu May  2 15:11:24 2024
 By 
Copyright (c) 2012 by [29 Arabic Letters] - Pascal Zoghbi. All rights reserved.
</metadata>
<defs>
<font id="29LTBukra-Regular" horiz-adv-x="0" >
  <font-face 
    font-family="29LT Bukra Regular"
    font-weight="400"
    font-stretch="normal"
    units-per-em="2048"
    panose-1="0 11 9 3 2 2 4 2 2 4"
    ascent="1690"
    descent="-358"
    x-height="1112"
    cap-height="1688"
    bbox="-328 -702 3052 2138"
    underline-thickness="102"
    underline-position="-204"
    unicode-range="U+001D-FEFC"
  />
<missing-glyph horiz-adv-x="1024" 
 />
    <glyph glyph-name="uniFEF5" unicode="&#xfedf;&#xfe82;" horiz-adv-x="1431" arabic-form="isolated" 
d="M260 1663h514v-145h-514v145zM61 119h584q88 0 166 21q77 21 135 65q56 41 84 102q29 63 29 166v1366h307v-145h-162v-1241q0 -91 -38 -191q-37 -98 -117 -158q-92 -70 -209 -100q-122 -31 -252 -31h-510zM444 1427h146v-1249h-146v1249z" />
    <glyph glyph-name="uniFEF6" unicode="&#xfee0;&#xfe82;" horiz-adv-x="1507" arabic-form="final" 
d="M1575 -27q-129 0 -208 19q-74 18 -130 51q-54 32 -89 75t-42 58q-37 -57 -34 -55l-23 -17q-92 -70 -209 -100q-122 -31 -252 -31h-510l-17 146h584q88 0 166 21q77 21 135 65q56 41 84 102q29 63 29 166v1366h307v-145h-162v-1241q0 -76 -20 -140q19 -43 48 -79
q30 -38 72 -63q43 -26 101 -39t170 -13v-146zM444 1427h146v-1249h-146v1249zM260 1663h514v-145h-514v145z" />
    <glyph glyph-name="uniFEF7" unicode="&#xfedf;&#xfe84;" horiz-adv-x="1431" arabic-form="isolated" 
d="M61 119h584q88 0 166 21q77 21 135 65q56 41 84 102q29 63 29 166v1366h307v-145h-162v-1241q0 -91 -38 -191q-37 -98 -117 -158q-92 -70 -209 -100q-122 -31 -252 -31h-510zM444 1427h146v-1249h-146v1249zM305 1606q0 127 61 200q60 72 183 72h100v-145h-86
q-65 0 -88 -24q-22 -23 -22 -46h262v-145h-410v88z" />
    <glyph glyph-name="uniFEF8" unicode="&#xfee0;&#xfe84;" horiz-adv-x="1507" arabic-form="final" 
d="M1575 -27q-129 0 -208 19q-74 18 -130 51q-54 32 -89 75t-42 58q-37 -57 -34 -55l-23 -17q-92 -70 -209 -100q-122 -31 -252 -31h-510l-17 146h584q88 0 166 21q77 21 135 65q56 41 84 102q29 63 29 166v1366h307v-145h-162v-1241q0 -76 -20 -140q19 -43 48 -79
q30 -38 72 -63q43 -26 101 -39t170 -13v-146zM444 1427h146v-1249h-146v1249zM309 1606q0 127 61 200q60 72 183 72h100v-145h-86q-65 0 -88 -24q-22 -23 -22 -46h262v-145h-410v88z" />
    <glyph glyph-name="uniFEF9" unicode="&#xfedf;&#xfe88;" horiz-adv-x="1431" arabic-form="isolated" 
d="M61 119h584q88 0 166 21q77 21 135 65q56 41 84 102q29 63 29 166v1366h307v-145h-162v-1241q0 -91 -38 -191q-37 -98 -117 -158q-92 -70 -209 -100q-122 -31 -252 -31h-510zM444 1427h146v-1249h-146v1249zM541 -590q-124 0 -184 72t-60 201v88h410v-146h-263
q0 -21 23 -46q22 -23 88 -23h86v-146h-100z" />
    <glyph glyph-name="uniFEFA" unicode="&#xfee0;&#xfe88;" horiz-adv-x="1507" arabic-form="final" 
d="M1575 -27q-129 0 -208 19q-74 18 -130 51q-54 32 -89 75t-42 58q-37 -57 -34 -55l-23 -17q-92 -70 -209 -100q-122 -31 -252 -31h-510l-17 146h584q88 0 166 21q77 21 135 65q56 41 84 102q29 63 29 166v1366h307v-145h-162v-1241q0 -33 -5 -76q-5 -39 -15 -66
q18 -41 48 -78q28 -36 72 -62q43 -26 101 -39t170 -13v-146zM444 1427h146v-1249h-146v1249zM557 -590q-123 0 -183 72q-61 73 -61 201v88h410v-146h-262q0 -23 22 -46t88 -23h86v-146h-100z" />
    <glyph glyph-name="uniFEFB" unicode="&#xfedf;&#xfe8e;" horiz-adv-x="1431" arabic-form="isolated" 
d="M61 119h584q88 0 166 21q77 21 135 65q56 41 84 102q29 63 29 166v1366h307v-145h-162v-1241q0 -91 -38 -191q-37 -98 -117 -158q-92 -70 -209 -100q-122 -31 -252 -31h-510zM444 1427h146v-1249h-146v1249z" />
    <glyph glyph-name="uniFEFC" unicode="&#xfee0;&#xfe8e;" horiz-adv-x="1507" arabic-form="final" 
d="M1575 -27q-129 0 -208 19q-74 18 -130 51q-54 32 -89 75t-42 58q-37 -57 -34 -55l-23 -17q-92 -70 -209 -100q-122 -31 -252 -31h-510l-17 146h584q88 0 166 21q77 21 135 65q56 41 84 102q29 63 29 166v1366h307v-145h-162v-1241q0 -33 -5 -76q-5 -39 -15 -66
q18 -41 48 -78q28 -36 72 -62q43 -26 101 -39t170 -13v-146zM444 1427h146v-1249h-146v1249z" />
    <glyph glyph-name="uni06440671" unicode="&#xfedf;&#xfb51;" horiz-adv-x="1431" 
d="M61 119h584q88 0 166 21q77 21 135 65q56 41 84 102q29 63 29 166v1366h307v-145h-162v-1241q0 -91 -38 -191q-37 -98 -117 -158q-92 -70 -209 -100q-122 -31 -252 -31h-510zM444 1427h146v-1249h-146v1249zM260 1653h113q0 59 53 117q53 57 137 57q105 0 158 -61
t53 -148v-100h-514v135zM563 1702q-28 0 -47 -19q-18 -18 -18 -30h129q0 5 -17 27t-47 22z" />
    <glyph glyph-name="uni06440671.fina" unicode="&#xfee0;&#xfb51;" horiz-adv-x="1507" 
d="M1575 -27q-129 0 -208 19q-74 18 -130 51q-54 32 -89 75t-42 58q-37 -57 -34 -55l-23 -17q-92 -70 -209 -100q-122 -31 -252 -31h-510l-17 146h584q88 0 166 21q77 21 135 65q56 41 84 102q29 63 29 166v1366h307v-145h-162v-1241q0 -76 -20 -140q19 -43 48 -79
q30 -38 72 -63q43 -26 101 -39t170 -13v-146zM444 1427h146v-1249h-146v1249zM260 1653h113q0 59 53 117q53 57 137 57q105 0 158 -61t53 -148v-100h-514v135zM563 1702q-28 0 -47 -19q-18 -18 -18 -30h129q0 5 -17 27t-47 22z" />
    <glyph glyph-name="uni0621" unicode="&#x621;" horiz-adv-x="1112" arabic-form="isolated" 
d="M240 446q0 255 113 390q114 137 325 137h217v-146h-246q-117 0 -190 -93q-74 -94 -74 -255v-360h600v-146h-745v473z" />
    <glyph glyph-name="uni0622" unicode="&#x622;" horiz-adv-x="542" arabic-form="isolated" 
d="M57 1663h514v-145h-514v145zM236 1440h145v-1467h-145v1467z" />
    <glyph glyph-name="uni0623" unicode="&#x623;" horiz-adv-x="542" arabic-form="isolated" 
d="M106 1608q0 127 61 200q60 72 183 72h101v-145h-86q-67 0 -89 -24q-22 -23 -22 -46h262v-145h-410v88zM242 1440h145v-1467h-145v1467z" />
    <glyph glyph-name="uni0624" unicode="&#x624;" horiz-adv-x="1177" arabic-form="isolated" 
d="M614 -477q-101 0 -179 28q-71 26 -183 91l67 129q104 -57 162 -78q69 -25 142 -25q131 0 207 62q75 62 75 172v71h-96q-133 0 -258 30q-126 30 -224 97q-100 68 -160 178q-61 111 -61 265q0 124 50 230q49 104 141 181q91 76 221 117q131 41 291 41h242v-1210
q0 -176 -120 -278q-119 -101 -317 -101zM252 543q0 -107 39 -186t107 -131q70 -54 160 -80q91 -27 194 -27h153v848h-153q-90 0 -183 -31q-88 -29 -160 -86q-71 -56 -114 -132t-43 -175zM623 1485q0 129 60 201q59 71 183 71h142v-145h-127q-65 0 -88 -24q-23 -25 -23 -72
v-56h303v-145h-450v170z" />
    <glyph glyph-name="uni0625" unicode="&#x625;" horiz-adv-x="563" arabic-form="isolated" 
d="M270 1688h146v-1715h-146v1715zM377 -477q-124 0 -183 71q-61 73 -61 201v88h410v-145h-262q0 -23 22 -46q23 -24 88 -24h86v-145h-100z" />
    <glyph glyph-name="uni0626" unicode="&#x626;" horiz-adv-x="2138" arabic-form="isolated" 
d="M840 -283q-82 0 -152 8q-71 8 -120 23q-52 16 -99 41q-43 23 -90 59q-81 61 -118 158q-38 100 -38 191v546h146v-526q0 -106 28 -166q29 -61 84 -102q58 -44 135 -65q78 -21 166 -21h418v835q0 104 35 180q34 74 104 138q61 52 137 74q75 22 154 22h381v-1139h-145v994
h-211q-74 0 -125 -15q-53 -16 -93 -47q-44 -34 -67 -87q-24 -54 -24 -107v-994h-506zM86 1090q0 128 60 200t184 72h141v-145h-127q-66 0 -88 -24q-23 -25 -23 -73v-55h304v-145h-451v170z" />
    <glyph glyph-name="uni0627" unicode="&#x627;" horiz-adv-x="552" arabic-form="isolated" 
d="M240 1688h145v-1715h-145v1715z" />
    <glyph glyph-name="uni0628" unicode="&#x628;" horiz-adv-x="1632" arabic-form="isolated" 
d="M723 -27q-82 0 -152 8t-119 23q-54 17 -100 41q-43 23 -90 59q-81 61 -118 158q-38 100 -38 191v456h146v-436q0 -103 29 -166q29 -61 84 -102q58 -44 135 -65q78 -21 166 -21h694v993h145v-1139h-782zM899 -451q-45 0 -78 33t-33 78t33 78t78 33t78 -33t33 -78t-33 -78
t-78 -33z" />
    <glyph glyph-name="uni0629" unicode="&#x629;" horiz-adv-x="1196" arabic-form="isolated" 
d="M799 -27q-132 0 -258 32t-222 101q-93 67 -154 179q-59 109 -59 258q0 118 49 225q47 104 140 181q91 77 219 120q126 43 285 43h96v102h145v-1241h-241zM895 119v848h-154q-91 0 -181 -32q-88 -31 -158 -86q-69 -54 -109 -133q-41 -80 -41 -173q0 -98 38 -179
q39 -82 103 -133q67 -53 156 -83q87 -29 192 -29h154zM592 1403q-45 0 -78 33t-33 77q0 45 33 78t78 33t78 -33q32 -32 32 -78q0 -45 -32 -77q-33 -33 -78 -33zM958 1403q-44 0 -77 33t-33 77q0 45 33 78t77 33q45 0 78 -33t33 -78q0 -44 -33 -77t-78 -33z" />
    <glyph glyph-name="uni062A" unicode="&#x62a;" horiz-adv-x="1632" arabic-form="isolated" 
d="M723 -27q-82 0 -152 8t-119 23q-54 17 -100 41q-43 23 -90 59q-81 61 -118 158q-38 100 -38 191v456h146v-436q0 -103 29 -166q29 -61 84 -102q58 -44 135 -65q78 -21 166 -21h694v993h145v-1139h-782zM633 1118q-45 0 -78 33t-33 78t33 78q32 32 78 32t78 -32t32 -78
t-32 -78q-33 -33 -78 -33zM999 1118q-44 0 -77 33t-33 78t33 78q32 32 77 32q46 0 78 -32q33 -33 33 -78t-33 -78t-78 -33z" />
    <glyph glyph-name="uni062B" unicode="&#x62b;" horiz-adv-x="1632" arabic-form="isolated" 
d="M723 -27q-82 0 -152 8t-119 23q-54 17 -100 41q-43 23 -90 59q-81 61 -118 158q-38 100 -38 191v456h146v-436q0 -103 29 -166q29 -61 84 -102q58 -44 135 -65q78 -21 166 -21h694v993h145v-1139h-782zM633 1122q-45 0 -78 33t-33 78t33 78q32 32 78 32t78 -32t32 -78
t-32 -78q-33 -33 -78 -33zM815 1397q-45 0 -78 33q-32 32 -32 77q0 46 32 78q33 33 78 33t78 -33t33 -78q0 -44 -33 -77t-78 -33zM999 1122q-44 0 -77 33t-33 78t33 78t77 33q45 0 78 -33t33 -78t-33 -78t-78 -33z" />
    <glyph glyph-name="uni062C" unicode="&#x62c;" horiz-adv-x="1132" arabic-form="isolated" 
d="M193 -487q-49 82 -68 119q-26 51 -43 102q-20 58 -28 112q-9 60 -9 134q0 22 3 58q2 30 11 81h797q19 68 31 172q12 108 12 289q0 88 -27 161q-28 76 -100 138q-49 39 -119 63q-72 25 -164 25q-74 0 -164 -28q-88 -27 -182 -99l-55 139q61 38 116 65q51 25 95 38
q53 16 103 23t122 7q96 0 184 -33q89 -33 154 -88q91 -74 137 -183q48 -113 48 -259q0 -68 -7 -163q-7 -90 -16 -154q-11 -73 -24 -134q-15 -70 -35 -125h-775v-14q0 -92 26 -176q25 -80 89 -201zM578 -451q-45 0 -78 33t-33 78t33 78t78 33q44 0 77 -33t33 -78t-33 -78
t-77 -33z" />
    <glyph glyph-name="uni062D" unicode="&#x62d;" horiz-adv-x="1132" arabic-form="isolated" 
d="M193 -487q-49 82 -68 119q-26 51 -43 102q-20 58 -28 112q-9 60 -9 134q0 22 3 58q2 30 11 81h797q19 68 31 172q12 108 12 289q0 88 -27 161q-28 76 -100 138q-49 39 -119 63q-72 25 -164 25q-74 0 -164 -28q-88 -27 -182 -99l-55 139q61 38 116 65q51 25 95 38
q53 16 103 23t122 7q96 0 184 -33q89 -33 154 -88q91 -74 137 -183q48 -113 48 -259q0 -68 -7 -163q-7 -90 -16 -154q-11 -73 -24 -134q-15 -70 -35 -125h-775v-14q0 -92 26 -176q25 -80 89 -201z" />
    <glyph glyph-name="uni062E" unicode="&#x62e;" horiz-adv-x="1132" arabic-form="isolated" 
d="M193 -487q-49 82 -68 119q-26 51 -43 102q-20 58 -28 112q-9 60 -9 134q0 22 3 58q2 30 11 81h797q19 68 31 172q12 108 12 289q0 88 -27 161q-28 76 -100 138q-49 39 -119 63q-72 25 -164 25q-74 0 -164 -28q-88 -27 -182 -99l-55 139q61 38 116 65q51 25 95 38
q53 16 103 23t122 7q96 0 184 -33q89 -33 154 -88q91 -74 137 -183q48 -113 48 -259q0 -68 -7 -163q-7 -90 -16 -154q-11 -73 -24 -134q-15 -70 -35 -125h-775v-14q0 -92 26 -176q25 -80 89 -201zM516 1298q-45 0 -78 33t-33 78t33 78t78 33t78 -33t33 -78t-33 -78t-78 -33z
" />
    <glyph glyph-name="uni062F" unicode="&#x62f;" horiz-adv-x="1091" arabic-form="isolated" 
d="M45 119h795v538q0 74 -15 125q-16 55 -47 94q-33 42 -87 66q-56 25 -107 25h-176v145h163q104 0 180 -35q74 -34 138 -104q52 -61 74 -136t22 -155v-709h-940v146z" />
    <glyph glyph-name="uni0630" unicode="&#x630;" horiz-adv-x="1091" arabic-form="isolated" 
d="M45 119h795v538q0 74 -15 125q-16 55 -47 94q-33 42 -87 66q-56 25 -107 25h-176v145h163q104 0 180 -35q74 -34 138 -104q52 -61 74 -136t22 -155v-709h-940v146zM539 1298q-45 0 -78 33t-33 78t33 78t78 33q44 0 77 -33t33 -78t-33 -78t-77 -33z" />
    <glyph glyph-name="uni0631" unicode="&#x631;" horiz-adv-x="593" arabic-form="isolated" 
d="M174 -479q-56 0 -137 35l53 135q62 -25 92 -25q48 0 76 20q26 19 41 52q13 29 18 77t5 85v1212h145v-1212q0 -80 -11 -143q-12 -71 -43 -122q-33 -55 -90 -84q-59 -30 -149 -30z" />
    <glyph glyph-name="uni0632" unicode="&#x632;" horiz-adv-x="593" arabic-form="isolated" 
d="M174 -479q-56 0 -137 35l53 135q62 -25 92 -25q48 0 76 20q26 19 41 52q13 29 18 77t5 85v1212h145v-1212q0 -80 -11 -143q-12 -71 -43 -122q-33 -55 -90 -84q-59 -30 -149 -30zM393 1323q-45 0 -78 33q-32 32 -32 78q0 45 32 77q33 33 78 33t78 -33t33 -77
q0 -45 -33 -78t-78 -33z" />
    <glyph glyph-name="uni0633" unicode="&#x633;" horiz-adv-x="2777" arabic-form="isolated" 
d="M2214 -47q-145 0 -258 61q-117 63 -146 127q-22 -48 -115 -108t-218 -60h-361v-256h-373q-81 0 -151 8q-71 8 -120 23q-52 16 -99 41q-43 23 -90 59q-81 61 -118 158q-38 100 -38 191v776h145v-756q0 -103 29 -166q29 -61 84 -102q58 -44 135 -65q78 -21 166 -21h285
v1249h145v-993h361q111 0 180 66t69 196v629h146v-598q0 -64 23 -121q23 -58 68 -103q40 -40 108 -69q63 -27 143 -27q159 0 235 88t76 232v843h146v-823q0 -248 -124 -363q-125 -116 -333 -116z" />
    <glyph glyph-name="uni0634" unicode="&#x634;" horiz-adv-x="2777" arabic-form="isolated" 
d="M2214 -47q-145 0 -258 61q-117 63 -146 127q-22 -48 -115 -108t-218 -60h-361v-256h-373q-81 0 -151 8q-71 8 -120 23q-52 16 -99 41q-43 23 -90 59q-81 61 -118 158q-38 100 -38 191v776h145v-756q0 -103 29 -166q29 -61 84 -102q58 -44 135 -65q78 -21 166 -21h285
v1249h145v-993h361q111 0 180 66t69 196v629h146v-613q1 -57 26 -114q23 -53 69 -99q42 -42 107 -67q66 -25 140 -25q159 0 235 88t76 232v843h146v-823q0 -248 -124 -363q-125 -116 -333 -116zM1616 1323q-45 0 -78 33t-33 78q0 44 33 77t78 33t78 -33q32 -32 32 -77
q0 -46 -32 -78q-33 -33 -78 -33zM1798 1597q-45 0 -78 33q-32 32 -32 78t32 78q33 33 78 33t78 -33t33 -78t-33 -78t-78 -33zM1982 1323q-44 0 -77 33t-33 78q0 44 33 77t77 33q45 0 78 -33t33 -77q0 -45 -33 -78t-78 -33z" />
    <glyph glyph-name="uni0635" unicode="&#x635;" horiz-adv-x="2410" arabic-form="isolated" 
d="M1116 -27v-256h-373q-81 0 -151 8q-71 8 -120 23q-52 16 -99 41q-43 23 -90 59q-81 61 -118 158q-38 100 -38 191v776h145v-756q0 -103 29 -166q29 -61 84 -102q58 -44 135 -65q78 -21 166 -21h285v1249h145v-139h774q104 0 180 -35q74 -34 138 -104q50 -59 73 -137
t23 -154v-570h-1188zM1116 827v-708h1043v399q0 74 -15 125q-16 53 -47 93q-34 44 -87 67q-54 24 -107 24h-787z" />
    <glyph glyph-name="uni0636" unicode="&#x636;" horiz-adv-x="2410" arabic-form="isolated" 
d="M1116 -27v-256h-373q-81 0 -151 8q-71 8 -120 23q-52 16 -99 41q-43 23 -90 59q-81 61 -118 158q-38 100 -38 191v776h145v-756q0 -103 29 -166q29 -61 84 -102q58 -44 135 -65q78 -21 166 -21h285v1249h145v-139h774q104 0 180 -35q74 -34 138 -104q50 -59 73 -137
t23 -154v-570h-1188zM1116 827v-708h1043v399q0 74 -15 125q-16 53 -47 93q-34 44 -87 67q-54 24 -107 24h-787zM1591 1202q-45 0 -78 33q-32 32 -32 78t32 78t78 32t78 -32q33 -33 33 -78t-33 -78t-78 -33z" />
    <glyph glyph-name="uni0637" unicode="&#x637;" horiz-adv-x="1785" arabic-form="isolated" 
d="M45 119h320v1569h145v-715h756q103 0 179 -35q74 -34 138 -104q52 -61 74 -137q22 -75 22 -154v-570h-1634v146zM510 827v-708h1024v399q0 77 -14 125q-16 53 -47 93q-34 43 -88 67t-107 24h-768z" />
    <glyph glyph-name="uni0638" unicode="&#x638;" horiz-adv-x="1785" arabic-form="isolated" 
d="M45 119h320v1569h145v-715h756q103 0 179 -35q74 -34 138 -104q52 -61 74 -137q22 -75 22 -154v-570h-1634v146zM510 827v-708h1024v399q0 77 -14 125q-16 53 -47 93q-34 43 -88 67t-107 24h-768zM993 1202q-45 0 -78 33q-32 32 -32 78t32 78t78 32t78 -32q33 -33 33 -78
t-33 -78t-78 -33z" />
    <glyph glyph-name="uni0639" unicode="&#x639;" horiz-adv-x="1290" arabic-form="isolated" 
d="M233 -487q-43 72 -67 119q-26 51 -43 102q-20 58 -28 112q-9 60 -9 134q0 22 3 58q3 30 11 81h183l-33 59q-26 51 -48 113q-23 65 -35 125q-13 64 -13 133q0 150 58 259q59 111 146 183q65 54 155 88q89 33 183 33q70 0 120 -7q53 -7 103 -23q44 -14 94 -38
q51 -25 115 -65l-51 -139q-95 72 -181 99q-90 28 -165 28q-92 0 -164 -25q-68 -24 -118 -63q-148 -125 -148 -299q0 -91 13 -157q14 -71 34 -124q22 -59 47 -100l47 -80h742v-146h-953v-14q0 -92 26 -176q25 -80 89 -201z" />
    <glyph glyph-name="uni063A" unicode="&#x63a;" horiz-adv-x="1290" arabic-form="isolated" 
d="M233 -487q-43 72 -67 119q-26 51 -43 102q-20 58 -28 112q-9 60 -9 134q0 22 3 58q3 30 11 81h183l-33 59q-26 51 -48 113q-23 65 -35 125q-13 64 -13 133q0 150 58 259q59 111 146 183q65 54 155 88q89 33 183 33q70 0 120 -7q53 -7 103 -23q44 -14 94 -38
q51 -25 115 -65l-51 -139q-95 72 -181 99q-90 28 -165 28q-92 0 -164 -25q-68 -24 -118 -63q-148 -125 -148 -299q0 -91 13 -157q14 -71 34 -124q22 -59 47 -100l47 -80h742v-146h-953v-14q0 -92 26 -176q25 -80 89 -201zM686 1323q-45 0 -78 33t-33 78q0 44 33 77t78 33
t78 -33t33 -77q0 -45 -33 -78t-78 -33z" />
    <glyph glyph-name="uni0641" unicode="&#x641;" horiz-adv-x="2031" arabic-form="isolated" 
d="M723 -27q-82 0 -152 8t-119 23q-54 17 -100 41q-43 23 -90 59q-81 61 -118 158q-38 100 -38 191v456h146v-436q0 -103 29 -166q29 -61 84 -102q58 -44 135 -65q78 -21 166 -21h483q-37 27 -113 143q-75 115 -75 283q0 119 44 225q43 104 131 181t215 119t291 42h283
v-1139h-1202zM1106 545q0 -144 84 -252t207 -174h383v848h-195q-101 0 -186 -30q-88 -31 -152 -86q-66 -57 -103 -134q-38 -79 -38 -172zM1581 1323q-45 0 -78 33t-33 78q0 44 33 77t78 33t78 -33t33 -77q0 -45 -33 -78t-78 -33z" />
    <glyph glyph-name="uni0642" unicode="&#x642;" horiz-adv-x="1652" arabic-form="isolated" 
d="M723 -477q-90 0 -152 7q-64 7 -119 24q-59 18 -100 40q-39 21 -90 60q-81 61 -118 158q-38 100 -38 190v547h146v-526q0 -103 29 -166t84 -103q56 -43 135 -64q82 -22 166 -22h714v305h-96q-140 0 -264 30t-223 96q-98 65 -157 176q-58 109 -58 268q0 120 48 225
q47 104 140 181q92 77 222 120q129 43 292 43h242v-1589h-803zM727 543q0 -106 38 -187q37 -80 105 -132q66 -51 160 -79q88 -26 197 -26h153v848h-153q-97 0 -190 -32q-88 -30 -159 -86q-70 -55 -110 -133q-41 -80 -41 -173zM1382 1323q-44 0 -77 33t-33 78q0 44 33 77
t77 33q45 0 78 -33t33 -77q0 -45 -33 -78t-78 -33zM1016 1323q-45 0 -78 33t-33 78q0 44 33 77t78 33t78 -33q32 -32 32 -77q0 -46 -32 -78q-33 -33 -78 -33z" />
    <glyph glyph-name="uni0643" unicode="&#x643;" horiz-adv-x="1673" arabic-form="isolated" 
d="M723 -27q-82 0 -152 8t-119 23q-54 17 -100 41q-43 23 -90 59q-81 61 -118 158q-38 100 -38 191v456h146v-436q0 -103 29 -166q29 -61 84 -102q58 -44 135 -65q78 -21 166 -21h694v1569h145v-1715h-782zM614 782q0 128 61 201q60 72 183 72h141v-146h-127q-66 0 -88 -23
t-22 -73v-55h303v-146h-451v170z" />
    <glyph glyph-name="uni0644" unicode="&#x644;" horiz-adv-x="1363" arabic-form="isolated" 
d="M723 -283q-82 0 -152 8t-119 23q-54 17 -100 41q-43 23 -90 59q-81 61 -118 158q-38 100 -38 191v776h146v-756q0 -103 29 -166q29 -61 84 -102q58 -44 135 -65q78 -21 166 -21h284v1825h348v-146h-202v-1825h-373z" />
    <glyph glyph-name="uni0645" unicode="&#x645;" horiz-adv-x="1802" arabic-form="isolated" 
d="M1124 -244q-124 0 -226 43q-104 44 -182 119q-79 76 -127 178t-54 193q-70 -2 -137 -32q-66 -30 -105 -81q-44 -58 -65 -135q-21 -78 -21 -166v-352h-146v295q0 168 32 278q31 108 100 187q66 77 160 113q94 37 182 38q6 93 54 196q47 101 128 179q79 77 183 120
q105 44 224 44q133 0 245 -47t194 -129q81 -81 128 -193q46 -110 46 -242q0 -131 -47 -242q-46 -108 -130 -192q-81 -81 -194 -127q-111 -45 -242 -45zM1124 -98q100 0 187 35q85 34 147 95q61 60 97 145t36 186q0 99 -35 186q-35 86 -97 147q-65 64 -148 97q-84 34 -187 34
q-101 0 -180 -36t-141 -101q-58 -61 -93 -148q-34 -84 -34 -179q0 -94 34 -178t94 -147q58 -61 142 -99q81 -37 178 -37z" />
    <glyph glyph-name="uni0646" unicode="&#x646;" horiz-adv-x="1222" arabic-form="isolated" 
d="M723 -283q-82 0 -152 8t-119 23q-54 17 -100 41q-43 23 -90 59q-81 61 -118 158q-38 100 -38 191v776h146v-756q0 -103 29 -166q29 -61 84 -102q58 -44 135 -65q78 -21 166 -21h284v1110h146v-1256h-373zM614 1202q-44 0 -77 33t-33 78t33 78q32 32 77 32q46 0 78 -32
q33 -33 33 -78t-33 -78t-78 -33z" />
    <glyph glyph-name="uni0648" unicode="&#x648;" horiz-adv-x="1177" arabic-form="isolated" 
d="M614 -477q-101 0 -179 28q-71 26 -183 91l67 129q104 -57 162 -78q69 -25 142 -25q131 0 207 62q75 62 75 172v71h-96q-133 0 -258 30q-126 30 -224 97q-100 68 -160 178q-61 111 -61 265q0 124 50 230q49 104 141 181q91 76 221 117q131 41 291 41h242v-1210
q0 -176 -120 -278q-119 -101 -317 -101zM252 543q0 -107 39 -186t107 -131q70 -54 160 -80q91 -27 194 -27h153v848h-153q-90 0 -183 -31q-88 -29 -160 -86q-71 -56 -114 -132t-43 -175z" />
    <glyph glyph-name="uni0649" unicode="&#x649;" horiz-adv-x="2021" arabic-form="isolated" 
d="M723 -283q-82 0 -152 8t-119 23q-54 17 -100 41q-43 23 -90 59q-81 61 -118 158q-38 100 -38 191v546h146v-526q0 -103 29 -166q29 -61 84 -102q58 -44 135 -65q78 -21 166 -21h417v835q0 104 35 180q33 73 105 138q61 52 136 74t154 22h381v-1139h-145v994h-211
q-74 0 -125 -15q-53 -16 -93 -47q-44 -34 -67 -87q-24 -54 -24 -107v-994h-506z" />
    <glyph glyph-name="uni064A" unicode="&#x64a;" horiz-adv-x="1863" arabic-form="isolated" 
d="M483 -283q-73 0 -140 8t-116 22q-53 15 -102 36q-51 22 -121 61l72 125q107 -62 184 -84q76 -22 166 -22h500v835q0 104 35 180q34 74 104 138q61 52 136 74t155 22h381v-1139h-146v994h-211q-74 0 -125 -15q-53 -16 -93 -47q-42 -33 -66 -87q-25 -56 -25 -107v-994h-588
zM569 66q-45 0 -77 32q-33 33 -33 78t33 78t77 33q45 0 78 -33t33 -78t-33 -78q-32 -32 -78 -32zM569 428q-44 0 -77 33t-33 78q0 44 33 77t77 33q45 0 78 -33t33 -77q0 -45 -33 -78t-78 -33z" />
    <glyph glyph-name="uni066E.init" unicode="&#x66e;" horiz-adv-x="503" 
d="M-27 119h258v993h146v-1139h-404v146z" />
    <glyph glyph-name="uni066E.medi" unicode="&#x66e;" horiz-adv-x="583" 
d="M-27 119h258v993h146v-993h274v-146h-678v146z" />
    <glyph glyph-name="uni066E.fina" unicode="&#x66e;" horiz-adv-x="1712" 
d="M723 -27q-82 0 -152 8t-119 23q-54 17 -100 41q-43 23 -90 59q-81 61 -118 158q-38 100 -38 191v456h146v-436q0 -103 29 -166q29 -61 84 -102q58 -44 135 -65q78 -21 166 -21h694v993h145v-993h275v-146h-1057z" />
    <glyph glyph-name="uni066F.init" unicode="&#x66f;" horiz-adv-x="1284" 
d="M-27 119h430q-45 29 -71 55q-25 25 -62 84q-35 56 -57 130q-20 67 -20 157q0 126 46 230q47 105 135 180q89 76 215 116q128 41 288 41h280v-1139h-1184v146zM338 545q0 -79 23 -141q24 -64 63 -117q41 -55 93 -97q49 -40 112 -71h383v848h-193q-90 0 -180 -29
q-87 -28 -155 -82q-65 -52 -106 -132q-40 -79 -40 -179z" />
    <glyph glyph-name="uni066F.medi" unicode="&#x66f;" horiz-adv-x="1363" 
d="M-27 119h430q-45 29 -71 55q-25 25 -62 84q-35 56 -57 130q-20 67 -20 157q0 126 46 230q47 105 135 180q89 76 215 116q128 41 288 41h280v-993h275v-146h-1459v146zM338 545q0 -79 23 -141q24 -64 63 -117q41 -55 93 -97q49 -40 112 -71h383v848h-193q-90 0 -180 -29
q-87 -28 -155 -82q-65 -52 -106 -132q-40 -79 -40 -179z" />
    <glyph glyph-name="uni066F.fina" unicode="&#x66f;" horiz-adv-x="1775" 
d="M723 -477q-90 0 -152 7q-64 7 -119 24q-59 18 -100 40q-39 21 -90 60q-81 61 -118 158q-38 100 -38 190v547h146v-526q0 -103 29 -166t84 -103q56 -43 135 -64q82 -22 166 -22h714v305h-96q-140 0 -264 30t-223 96q-98 65 -157 176q-58 109 -58 268q0 120 48 225
q47 104 140 181q92 77 222 120q129 43 292 43h242v-993h317v-146h-317v-450h-803zM727 543q0 -106 38 -187q37 -80 105 -132q66 -51 160 -79q88 -26 197 -26h153v848h-153q-97 0 -190 -32q-88 -30 -159 -86q-70 -55 -110 -133q-41 -80 -41 -173z" />
    <glyph glyph-name="uni0671" unicode="&#x671;" horiz-adv-x="542" arabic-form="isolated" 
d="M244 1440h145v-1467h-145v1467zM66 1653h112q0 59 53 117q53 57 138 57q104 0 157 -61q54 -62 54 -148v-100h-514v135zM369 1702q-28 0 -47 -19t-19 -30h129q0 7 -16 27q-17 22 -47 22z" />
    <glyph glyph-name="uni0679" unicode="&#x679;" horiz-adv-x="1632" arabic-form="isolated" 
d="M723 -27q-82 0 -152 8t-119 23q-54 17 -100 41q-43 23 -90 59q-81 61 -118 158q-38 100 -38 191v456h146v-436q0 -103 29 -166q29 -61 84 -102q58 -44 135 -65q78 -21 166 -21h694v993h145v-1139h-782zM549 1243h94v291h143v-117h72q94 0 150 -60q55 -59 55 -149v-100
h-514v135zM786 1292v-49h140q0 6 -17 28q-17 21 -51 21h-72z" />
    <glyph glyph-name="uni067E" unicode="&#x67e;" horiz-adv-x="1632" arabic-form="isolated" 
d="M723 -27q-82 0 -152 8t-119 23q-54 17 -100 41q-43 23 -90 59q-81 61 -118 158q-38 100 -38 191v456h146v-436q0 -103 29 -166q29 -61 84 -102q58 -44 135 -65q78 -21 166 -21h694v993h145v-1139h-782zM750 -451q-45 0 -78 33t-33 78t33 78t78 33q44 0 77 -33t33 -78
t-33 -78t-77 -33zM932 -702q-46 0 -78 32q-33 33 -33 78t33 78t78 33t78 -33q32 -32 32 -78t-32 -78t-78 -32zM1116 -451q-45 0 -78 33q-32 32 -32 78t32 78q33 33 78 33t78 -33t33 -78t-33 -78t-78 -33z" />
    <glyph glyph-name="uni0686" unicode="&#x686;" horiz-adv-x="1132" arabic-form="isolated" 
d="M193 -487q-49 82 -68 119q-26 51 -43 102q-20 58 -28 112q-9 60 -9 134q0 22 3 58q2 30 11 81h797q19 68 31 172q12 108 12 289q0 88 -27 161q-28 76 -100 138q-49 39 -119 63q-72 25 -164 25q-74 0 -164 -28q-88 -27 -182 -99l-55 139q61 38 116 65q51 25 95 38
q53 16 103 23t122 7q96 0 184 -33q89 -33 154 -88q91 -74 137 -183q48 -113 48 -259q0 -68 -7 -163q-7 -90 -16 -154q-11 -73 -24 -134q-15 -70 -35 -125h-775v-14q0 -92 26 -176q25 -80 89 -201zM438 -362q-46 0 -78 32t-32 78t32 78q33 33 78 33t78 -33t33 -78t-33 -78
q-32 -32 -78 -32zM621 -614q-46 0 -78 32q-33 33 -33 78t33 78t78 33q44 0 77 -33t33 -78t-33 -78q-32 -32 -77 -32zM805 -362q-46 0 -78 32q-33 33 -33 78t33 78t78 33t78 -33q32 -32 32 -78t-32 -78t-78 -32z" />
    <glyph glyph-name="uni0688" unicode="&#x688;" horiz-adv-x="1091" arabic-form="isolated" 
d="M45 119h795v538q0 74 -15 125q-16 55 -47 94q-33 42 -87 66q-56 25 -107 25h-176v145h163q104 0 180 -35q74 -34 138 -104q52 -61 74 -136t22 -155v-709h-940v146zM289 1450h94v291h143v-117h72q94 0 150 -60q55 -59 55 -149v-100h-514v135zM526 1499v-49h140q0 6 -17 28
q-17 21 -51 21h-72z" />
    <glyph glyph-name="uni0691" unicode="&#x691;" horiz-adv-x="593" arabic-form="isolated" 
d="M174 -479q-56 0 -137 35l53 135q62 -25 92 -25q48 0 76 20q26 19 41 52q13 29 18 77t5 85v1212h145v-1212q0 -80 -11 -143q-12 -71 -43 -122q-33 -55 -90 -84q-59 -30 -149 -30zM135 1450h94v291h144v-117h71q94 0 150 -60q55 -59 55 -149v-100h-514v135zM373 1499v-49
h139q0 8 -16 28q-17 21 -52 21h-71z" />
    <glyph glyph-name="uni0698" unicode="&#x698;" horiz-adv-x="593" arabic-form="isolated" 
d="M174 -479q-56 0 -137 35l53 135q62 -25 92 -25q48 0 76 20q26 19 41 52q13 29 18 77t5 85v1212h145v-1212q0 -80 -11 -143q-12 -71 -43 -122q-33 -55 -90 -84q-59 -30 -149 -30zM211 1323q-45 0 -78 33t-33 78q0 44 33 77t78 33t78 -33t33 -77q0 -45 -33 -78t-78 -33z
M393 1597q-45 0 -78 33q-32 32 -32 78t32 78q33 33 78 33t78 -33t33 -78t-33 -78t-78 -33zM578 1323q-45 0 -78 33t-33 78q0 44 33 77t78 33q44 0 77 -33t33 -77q0 -45 -33 -78t-77 -33z" />
    <glyph glyph-name="uni06A1.init" unicode="&#x6a1;" horiz-adv-x="1284" 
d="M-27 119h430q-45 29 -71 55q-25 25 -62 84q-35 56 -57 130q-20 67 -20 157q0 126 46 230q47 105 135 180q89 76 215 116q128 41 288 41h280v-1139h-1184v146zM338 545q0 -79 23 -141q24 -64 63 -117q41 -55 93 -97q49 -40 112 -71h383v848h-193q-90 0 -180 -29
q-87 -28 -155 -82q-65 -52 -106 -132q-40 -79 -40 -179z" />
    <glyph glyph-name="uni06A1.medi" unicode="&#x6a1;" horiz-adv-x="1363" 
d="M-27 119h430q-45 29 -71 55q-25 25 -62 84q-35 56 -57 130q-20 67 -20 157q0 126 46 230q47 105 135 180q89 76 215 116q128 41 288 41h280v-993h275v-146h-1459v146zM338 545q0 -79 23 -141q24 -64 63 -117q41 -55 93 -97q49 -40 112 -71h383v848h-193q-90 0 -180 -29
q-87 -28 -155 -82q-65 -52 -106 -132q-40 -79 -40 -179z" />
    <glyph glyph-name="uni06A1.fina" unicode="&#x6a1;" horiz-adv-x="2277" 
d="M868 -27q-81 0 -151 8q-71 8 -120 23q-52 16 -99 41q-43 23 -90 59q-81 61 -118 158q-38 100 -38 191v456h145v-436q0 -103 29 -166q28 -61 84 -102q58 -44 135 -65q78 -21 166 -21h483q-35 25 -112 143q-76 116 -76 283q0 119 44 225q43 104 131 181t215 119t292 42h283
v-993h274v-146h-1477zM1251 545q0 -144 84 -252t207 -174h383v848h-194q-101 0 -187 -30q-87 -30 -151 -86q-68 -58 -104 -134q-38 -79 -38 -172z" />
    <glyph glyph-name="uni06A4" unicode="&#x6a4;" horiz-adv-x="2052" arabic-form="isolated" 
d="M723 -27q-82 0 -152 8t-119 23q-54 17 -100 41q-43 23 -90 59q-81 61 -118 158q-38 100 -38 191v456h146v-436q0 -103 29 -166q29 -61 84 -102q58 -44 135 -65q78 -21 166 -21h483q-37 27 -113 143q-75 115 -75 283q0 119 44 225q43 104 131 181t215 119t291 42h283
v-1139h-1202zM1106 545q0 -144 84 -252t207 -174h383v848h-195q-101 0 -186 -30q-88 -31 -152 -86q-66 -57 -103 -134q-38 -79 -38 -172zM1583 1597q-45 0 -78 33q-32 32 -32 78t32 78q33 33 78 33t78 -33t33 -78t-33 -78t-78 -33zM1401 1323q-45 0 -78 33t-33 78
q0 44 33 77t78 33t78 -33q32 -32 32 -77q0 -46 -32 -78q-33 -33 -78 -33zM1767 1323q-44 0 -77 33t-33 78q0 44 33 77t77 33q45 0 78 -33t33 -77q0 -45 -33 -78t-78 -33z" />
    <glyph glyph-name="uni06A9" unicode="&#x6a9;" horiz-adv-x="1976" arabic-form="isolated" 
d="M723 -27q-82 0 -152 8t-119 23q-54 17 -100 41q-43 23 -90 59q-81 61 -118 158q-38 100 -38 191v456h146v-436q0 -103 29 -166q29 -61 84 -102q58 -44 135 -65q78 -21 166 -21h1058v416q0 76 -14 124q-16 55 -47 94q-33 42 -87 66q-56 25 -108 25h-641q-35 34 -48 55
t-25 66l364 725h162l-348 -701h524q103 0 179 -35t139 -104q50 -59 73 -136q23 -78 23 -155v-586h-1147z" />
    <glyph glyph-name="uni06AF" unicode="&#x6af;" horiz-adv-x="1976" arabic-form="isolated" 
d="M625 936h-152l379 754h152zM723 -27q-82 0 -152 8t-119 23q-54 17 -100 41q-43 23 -90 59q-81 61 -118 158q-38 100 -38 191v456h146v-436q0 -103 29 -166q29 -61 84 -102q58 -44 135 -65q78 -21 166 -21h1058v416q0 76 -14 124q-16 55 -47 94q-33 42 -87 66
q-56 25 -108 25h-641q-35 34 -48 55t-25 66l364 725h162l-348 -701h524q103 0 179 -35t139 -104q50 -59 73 -136q23 -78 23 -155v-586h-1147z" />
    <glyph glyph-name="uni06BA" unicode="&#x6ba;" horiz-adv-x="1222" arabic-form="isolated" 
d="M723 -283q-82 0 -152 8t-119 23q-54 17 -100 41q-43 23 -90 59q-81 61 -118 158q-38 100 -38 191v776h146v-756q0 -103 29 -166q29 -61 84 -102q58 -44 135 -65q78 -21 166 -21h284v1110h146v-1256h-373z" />
    <glyph glyph-name="uni06BE" unicode="&#x6be;" horiz-adv-x="1742" arabic-form="isolated" 
d="M106 119h297q-4 9 -16 85q-12 75 -12 148q0 118 28 214q28 97 86 167t139 109t185 39q105 0 184 -39t137 -109q57 -69 84 -167t27 -214q0 -77 -10 -147q-11 -79 -14 -86h258q11 51 22 141q10 80 10 158q0 139 -17 235q-19 105 -67 205q-70 148 -217 231q-146 82 -366 82
q-128 0 -233 -39q-111 -41 -220 -100l-61 133q155 80 278 116q129 38 285 38q112 0 217 -31q99 -29 186 -82q84 -51 149 -119t103 -143q60 -114 84 -242q25 -133 25 -258q0 -118 -18 -232q-19 -123 -46 -239h-1487v146zM520 352q0 -78 10 -144t15 -89h530q5 22 15 88
q10 64 10 145q0 79 -19 153q-18 72 -55 122q-39 53 -89 80q-52 28 -124 28q-74 0 -128 -27q-52 -26 -91 -79q-37 -50 -55 -122q-19 -74 -19 -155z" />
    <glyph glyph-name="uni06C0" unicode="&#x6c0;" horiz-adv-x="1196" arabic-form="isolated" 
d="M799 -27q-132 0 -258 32t-222 101q-93 67 -154 179q-59 109 -59 258q0 118 49 225q47 104 140 181q91 77 219 120q126 43 285 43h96v102h145v-1241h-241zM895 119v848h-154q-91 0 -181 -32q-88 -31 -158 -86q-69 -54 -109 -133q-41 -80 -41 -173q0 -98 38 -179
q39 -82 103 -133q67 -53 156 -83q87 -29 192 -29h154zM590 1485q0 129 60 201q59 71 184 71h141v-145h-127q-66 0 -88 -24q-23 -25 -23 -72v-56h303v-145h-450v170z" />
    <glyph glyph-name="uni06C1" unicode="&#x6c1;" horiz-adv-x="1196" arabic-form="isolated" 
d="M799 -27q-132 0 -258 32t-222 101q-93 67 -154 179q-59 109 -59 258q0 118 49 225q47 104 140 181q91 77 219 120q126 43 285 43h96v102h145v-1241h-241zM895 119v848h-154q-91 0 -181 -32q-88 -31 -158 -86q-69 -54 -109 -133q-41 -80 -41 -173q0 -98 38 -179
q39 -82 103 -133q67 -53 156 -83q87 -29 192 -29h154z" />
    <glyph glyph-name="uni06CC" unicode="&#x6cc;" horiz-adv-x="2138" arabic-form="isolated" 
d="M840 -283q-82 0 -152 8q-71 8 -120 23q-52 16 -99 41q-43 23 -90 59q-81 61 -118 158q-38 100 -38 191v546h146v-526q0 -106 28 -166q29 -61 84 -102q58 -44 135 -65q78 -21 166 -21h418v835q0 104 35 180q34 74 104 138q61 52 137 74q75 22 154 22h381v-1139h-145v994
h-211q-74 0 -125 -15q-53 -16 -93 -47q-44 -34 -67 -87q-24 -54 -24 -107v-994h-506z" />
    <glyph glyph-name="uni06D2" unicode="&#x6d2;" horiz-adv-x="1861" arabic-form="isolated" 
d="M66 -27v387q0 80 22 155t74 136q65 72 138 105q76 35 179 35h92q40 0 53 10t13 45v127h145v-154q0 -81 -56 -127q-58 -47 -153 -47h-106q-54 0 -108 -24q-53 -23 -87 -67q-31 -40 -47 -93q-14 -48 -14 -125v-217h1321v-146h-1466z" />
    <glyph glyph-name="uni06D3" unicode="&#x6d3;" horiz-adv-x="1861" arabic-form="isolated" 
d="M66 -27v387q0 80 22 155t74 136q65 72 138 105q76 35 179 35h92q40 0 53 10t13 45v127h145v-154q0 -81 -56 -127q-58 -47 -153 -47h-106q-54 0 -108 -24q-53 -23 -87 -67q-31 -40 -47 -93q-14 -48 -14 -125v-217h1321v-146h-1466zM172 1229q0 129 60 201q59 71 184 71
h141v-145h-127q-66 0 -88 -24q-23 -25 -23 -72v-56h304v-145h-451v170z" />
    <glyph glyph-name="uni06D5.fina" unicode="&#x6d5;" horiz-adv-x="1247" 
d="M1315 119v-146h-516q-132 0 -258 32t-222 101q-93 67 -154 179q-59 109 -59 258q0 118 49 225q47 104 140 181q91 77 219 120q126 43 285 43h96v102h145v-1095h275zM895 119v848h-154q-91 0 -181 -32q-88 -31 -158 -86q-69 -54 -109 -133q-41 -80 -41 -173q0 -98 38 -179
q39 -82 103 -133q67 -53 156 -83q87 -29 192 -29h154z" />
    <glyph glyph-name="uniFB51" unicode="&#x671;" horiz-adv-x="645" arabic-form="final" 
d="M248 1440h145v-1321h320v-146h-465v1467zM66 1653h112q0 59 53 117q53 57 138 57q104 0 157 -61q54 -62 54 -148v-100h-514v135zM369 1702q-28 0 -47 -19t-19 -30h129q0 7 -16 27q-17 22 -47 22z" />
    <glyph glyph-name="uniFB57" unicode="&#x67e;" horiz-adv-x="1712" arabic-form="final" 
d="M723 -27q-82 0 -152 8t-119 23q-54 17 -100 41q-43 23 -90 59q-81 61 -118 158q-38 100 -38 191v456h146v-436q0 -103 29 -166q29 -61 84 -102q58 -44 135 -65q78 -21 166 -21h694v993h145v-993h275v-146h-1057zM1102 -451q-45 0 -78 33t-33 78t33 78t78 33t78 -33
q32 -32 32 -78t-32 -78q-33 -33 -78 -33zM918 -702q-46 0 -78 32q-33 33 -33 78t33 78t78 33q44 0 77 -33t33 -78t-33 -78q-32 -32 -77 -32zM735 -451q-45 0 -78 33q-32 32 -32 78t32 78q33 33 78 33t78 -33t33 -78t-33 -78t-78 -33z" />
    <glyph glyph-name="uniFB58" unicode="&#x67e;" horiz-adv-x="708" arabic-form="initial" 
d="M-27 119h463v993h146v-1139h-609v146zM133 -451q-45 0 -78 33q-32 32 -32 78t32 78q33 33 78 33t78 -33t33 -78t-33 -78t-78 -33zM315 -702q-45 0 -77 32q-33 33 -33 78t33 78t77 33q45 0 78 -33t33 -78t-33 -78q-32 -32 -78 -32zM500 -451q-45 0 -78 33t-33 78t33 78
t78 33t78 -33q32 -32 32 -78t-32 -78q-33 -33 -78 -33z" />
    <glyph glyph-name="uniFB59" unicode="&#x67e;" horiz-adv-x="952" arabic-form="medial" 
d="M-27 119h463v993h146v-993h438v-146h-1047v146zM508 -702q-46 0 -78 32q-33 33 -33 78t33 78t78 33t78 -33q32 -32 32 -78t-32 -78t-78 -32zM326 -451q-45 0 -78 33t-33 78t33 78t78 33q44 0 77 -33t33 -78t-33 -78t-77 -33zM692 -451q-45 0 -78 33q-32 32 -32 78t32 78
q33 33 78 33t78 -33t33 -78t-33 -78t-78 -33z" />
    <glyph glyph-name="uniFB67" unicode="&#x679;" horiz-adv-x="1712" arabic-form="final" 
d="M723 -27q-82 0 -152 8t-119 23q-54 17 -100 41q-43 23 -90 59q-81 61 -118 158q-38 100 -38 191v456h146v-436q0 -103 29 -166q29 -61 84 -102q58 -44 135 -65q78 -21 166 -21h694v993h145v-993h275v-146h-1057zM549 1243h94v291h143v-117h72q94 0 150 -60
q55 -59 55 -149v-100h-514v135zM786 1292v-49h140q0 6 -17 28q-17 21 -51 21h-72z" />
    <glyph glyph-name="uniFB68" unicode="&#x679;" horiz-adv-x="796" arabic-form="initial" 
d="M-27 119h463v993h146v-1139h-609v146zM248 1450h94v291h143v-117h72q95 0 150 -60q55 -59 55 -149v-100h-514v135zM485 1499v-49h140q0 6 -17 28q-16 21 -51 21h-72z" />
    <glyph glyph-name="uniFB69" unicode="&#x679;" horiz-adv-x="952" arabic-form="medial" 
d="M-27 119h463v993h146v-993h438v-146h-1047v146zM248 1450h94v291h143v-117h72q95 0 150 -60q55 -59 55 -149v-100h-514v135zM485 1499v-49h140q0 6 -17 28q-16 21 -51 21h-72z" />
    <glyph glyph-name="uniFB6B" unicode="&#x6a4;" horiz-adv-x="2131" arabic-form="final" 
d="M723 -27q-82 0 -152 8t-119 23q-54 17 -100 41q-43 23 -90 59q-81 61 -118 158q-38 100 -38 191v456h146v-436q0 -103 29 -166q29 -61 84 -102q58 -44 135 -65q78 -21 166 -21h483q-37 27 -113 143q-75 115 -75 283q0 119 44 225q43 104 131 181t215 119t291 42h283v-993
h275v-146h-1477zM1106 545q0 -144 84 -252t207 -174h383v848h-195q-101 0 -186 -30q-88 -31 -152 -86q-66 -57 -103 -134q-38 -79 -38 -172zM1585 1597q-45 0 -78 33q-32 32 -32 78t32 78q33 33 78 33t78 -33t33 -78t-33 -78t-78 -33zM1403 1323q-45 0 -78 33t-33 78
q0 44 33 77t78 33t78 -33q32 -32 32 -77q0 -46 -32 -78q-33 -33 -78 -33zM1769 1323q-44 0 -77 33t-33 78q0 44 33 77t77 33q45 0 78 -33t33 -77q0 -45 -33 -78t-78 -33z" />
    <glyph glyph-name="uniFB6C" unicode="&#x6a4;" horiz-adv-x="1284" arabic-form="initial" 
d="M-27 119h430q-45 29 -71 55q-25 25 -62 84q-35 56 -57 130q-20 67 -20 157q0 126 46 230q47 105 135 180q89 76 215 116q128 41 288 41h280v-1139h-1184v146zM338 545q0 -79 23 -141q24 -64 63 -117q41 -55 93 -97q49 -40 112 -71h383v848h-193q-90 0 -180 -29
q-87 -28 -155 -82q-65 -52 -106 -132q-40 -79 -40 -179zM840 1597q-45 0 -78 33t-33 78t33 78t78 33t78 -33q32 -32 32 -78t-32 -78q-33 -33 -78 -33zM657 1323q-44 0 -77 33t-33 78q0 44 33 77t77 33q45 0 78 -33t33 -77q0 -45 -33 -78t-78 -33zM1024 1323q-45 0 -78 33
t-33 78q0 44 33 77t78 33t78 -33t33 -77q0 -45 -33 -78t-78 -33z" />
    <glyph glyph-name="uniFB6D" unicode="&#x6a4;" horiz-adv-x="1363" arabic-form="medial" 
d="M-27 119h430q-45 29 -71 55q-25 25 -62 84q-35 56 -57 130q-20 67 -20 157q0 126 46 230q47 105 135 180q89 76 215 116q128 41 288 41h280v-993h275v-146h-1459v146zM338 545q0 -79 23 -141q24 -64 63 -117q41 -55 93 -97q49 -40 112 -71h383v848h-193q-90 0 -180 -29
q-87 -28 -155 -82q-65 -52 -106 -132q-40 -79 -40 -179zM1022 1323q-45 0 -78 33t-33 78q0 44 33 77t78 33t78 -33t33 -77q0 -45 -33 -78t-78 -33zM655 1323q-44 0 -77 33t-33 78q0 44 33 77t77 33q45 0 78 -33t33 -77q0 -45 -33 -78t-78 -33zM838 1597q-45 0 -78 33t-33 78
t33 78t78 33q44 0 77 -33t33 -78t-33 -78t-77 -33z" />
    <glyph glyph-name="uniFB7B" unicode="&#x686;" horiz-adv-x="1204" arabic-form="final" 
d="M193 -487q-49 82 -68 119q-26 51 -43 102q-20 58 -28 112q-9 60 -9 134q0 22 3 58q2 30 11 81h797q19 68 31 172q12 108 12 289q0 88 -27 161q-28 76 -100 138q-49 39 -119 63q-72 25 -164 25q-74 0 -164 -28q-88 -27 -182 -99l-55 139q61 38 116 65q51 25 95 38
q53 16 103 23t122 7q96 0 184 -33q89 -33 154 -88q91 -74 137 -183q48 -113 48 -259q0 -129 -15 -250q-17 -134 -28 -180h268v-146h-1082v-14q0 -92 26 -176q25 -80 89 -201zM805 -362q-46 0 -78 32q-33 33 -33 78t33 78t78 33t78 -33q32 -32 32 -78t-32 -78t-78 -32z
M621 -614q-46 0 -78 32q-33 33 -33 78t33 78t78 33q44 0 77 -33t33 -78t-33 -78q-32 -32 -77 -32zM438 -362q-46 0 -78 32t-32 78t32 78q33 33 78 33t78 -33t33 -78t-33 -78q-32 -32 -78 -32z" />
    <glyph glyph-name="uniFB7C" unicode="&#x686;" horiz-adv-x="1191" arabic-form="initial" 
d="M-27 119h942q19 68 31 172q12 108 12 289q0 90 -26 161q-28 75 -101 138q-50 39 -118 63q-72 25 -164 25q-75 0 -165 -28q-86 -27 -181 -99l-56 139q61 38 116 65q51 25 95 38q52 16 104 23q50 7 122 7q94 0 183 -33q90 -34 155 -88q91 -74 137 -183q47 -111 47 -259
q0 -82 -6 -163q-6 -76 -17 -154q-13 -87 -23 -134q-14 -63 -36 -125h-1051v146zM367 -362q-46 0 -78 32q-33 33 -33 78t33 78t78 33q44 0 77 -33t33 -78t-33 -78q-32 -32 -77 -32zM549 -614q-46 0 -78 32q-33 33 -33 78t33 78t78 33t78 -33q32 -32 32 -78t-32 -78t-78 -32z
M733 -362q-46 0 -78 32t-32 78t32 78q33 33 78 33t78 -33t33 -78t-33 -78q-32 -32 -78 -32z" />
    <glyph glyph-name="uniFB7D" unicode="&#x686;" horiz-adv-x="1263" arabic-form="medial" 
d="M-27 119h942q19 68 31 172q12 108 12 289q0 90 -26 161q-28 75 -101 138q-50 39 -118 63q-72 25 -164 25q-75 0 -165 -28q-86 -27 -181 -99l-56 139q61 38 116 65q51 25 95 38q52 16 104 23q50 7 122 7q94 0 183 -33q90 -34 155 -88q91 -74 137 -183q47 -111 47 -259
q0 -137 -14 -250q-16 -126 -29 -180h268v-146h-1358v146zM733 -362q-46 0 -78 32t-32 78t32 78q33 33 78 33t78 -33t33 -78t-33 -78q-32 -32 -78 -32zM549 -614q-46 0 -78 32q-33 33 -33 78t33 78t78 33t78 -33q32 -32 32 -78t-32 -78t-78 -32zM367 -362q-46 0 -78 32
q-33 33 -33 78t33 78t78 33q44 0 77 -33t33 -78t-33 -78q-32 -32 -77 -32z" />
    <glyph glyph-name="uniFB89" unicode="&#x688;" horiz-adv-x="1191" arabic-form="final" 
d="M45 119h795v538q0 74 -15 125q-16 55 -47 94q-33 42 -87 66q-56 25 -107 25h-176v145h163q104 0 180 -35q74 -34 138 -104q52 -61 74 -136t22 -155v-563h275v-146h-1215v146zM289 1450h94v291h143v-117h72q94 0 150 -60q55 -59 55 -149v-100h-514v135zM526 1499v-49h140
q0 6 -17 28q-17 21 -51 21h-72z" />
    <glyph glyph-name="uniFB8B" unicode="&#x698;" horiz-adv-x="716" arabic-form="final" 
d="M174 -479q-56 0 -137 35l53 135q62 -25 92 -25q48 0 76 20q26 19 41 52q13 29 18 77t5 85v1212h145v-993h317v-146h-317v-73q0 -80 -11 -143q-12 -71 -43 -122q-33 -55 -90 -84q-59 -30 -149 -30zM578 1323q-45 0 -78 33t-33 78q0 44 33 77t78 33q44 0 77 -33t33 -77
q0 -45 -33 -78t-77 -33zM393 1597q-45 0 -78 33q-32 32 -32 78t32 78q33 33 78 33t78 -33t33 -78t-33 -78t-78 -33zM211 1323q-45 0 -78 33t-33 78q0 44 33 77t78 33t78 -33t33 -77q0 -45 -33 -78t-78 -33z" />
    <glyph glyph-name="uniFB8D" unicode="&#x691;" horiz-adv-x="716" arabic-form="final" 
d="M174 -479q-56 0 -137 35l53 135q62 -25 92 -25q48 0 76 20q26 19 41 52q13 29 18 77t5 85v1212h145v-993h317v-146h-317v-73q0 -80 -11 -143q-12 -71 -43 -122q-33 -55 -90 -84q-59 -30 -149 -30zM135 1450h94v291h144v-117h71q94 0 150 -60q55 -59 55 -149v-100h-514
v135zM373 1499v-49h139q0 8 -16 28q-17 21 -52 21h-71z" />
    <glyph glyph-name="uniFB8F" unicode="&#x6a9;" horiz-adv-x="2076" arabic-form="final" 
d="M723 -27q-82 0 -152 8t-119 23q-54 17 -100 41q-43 23 -90 59q-81 61 -118 158q-38 100 -38 191v456h146v-436q0 -103 29 -166q29 -61 84 -102q58 -44 135 -65q78 -21 166 -21h1058v416q0 76 -14 124q-16 55 -47 94q-33 42 -87 66q-56 25 -108 25h-641q-35 34 -48 55
t-25 66l364 725h162l-348 -701h524q103 0 179 -35t139 -104q50 -59 73 -136q23 -78 23 -155v-440h274v-146h-1421z" />
    <glyph glyph-name="uniFB90" unicode="&#x6a9;" horiz-adv-x="1558" arabic-form="initial" 
d="M-27 119h1334v416q0 73 -15 124q-16 55 -47 94q-33 42 -87 66q-56 25 -107 25h-867q-35 34 -48 55t-25 66l364 725h162l-348 -701h749q104 0 180 -35q74 -34 138 -104q52 -61 74 -136t22 -155v-586h-1479v146z" />
    <glyph glyph-name="uniFB91" unicode="&#x6a9;" horiz-adv-x="1658" arabic-form="medial" 
d="M-27 119h1334v416q0 73 -15 124q-16 55 -47 94q-33 42 -87 66q-56 25 -107 25h-867q-35 34 -48 55t-25 66l364 725h162l-348 -701h749q104 0 180 -35q74 -34 138 -104q52 -61 74 -136t22 -155v-440h274v-146h-1753v146z" />
    <glyph glyph-name="uniFB93" unicode="&#x6af;" horiz-adv-x="2076" arabic-form="final" 
d="M723 -27q-82 0 -152 8t-119 23q-54 17 -100 41q-43 23 -90 59q-81 61 -118 158q-38 100 -38 191v456h146v-436q0 -103 29 -166q29 -61 84 -102q58 -44 135 -65q78 -21 166 -21h1058v416q0 76 -14 124q-16 55 -47 94q-33 42 -87 66q-56 25 -108 25h-641q-35 34 -48 55
t-25 66l364 725h162l-348 -701h524q103 0 179 -35t139 -104q50 -59 73 -136q23 -78 23 -155v-440h274v-146h-1421zM625 936h-152l379 754h152z" />
    <glyph glyph-name="uniFB94" unicode="&#x6af;" horiz-adv-x="1685" arabic-form="initial" 
d="M109 936h-152l379 754h151zM-27 119h1461v416q0 73 -15 124q-16 55 -47 94q-33 42 -87 66q-56 25 -107 25h-867q-35 34 -48 55t-25 66l364 725h162l-348 -701h749q104 0 180 -35q74 -34 138 -104q50 -59 73 -136q23 -78 23 -155v-586h-1606v146z" />
    <glyph glyph-name="uniFB95" unicode="&#x6af;" horiz-adv-x="1785" arabic-form="medial" 
d="M-27 119h1461v416q0 73 -15 124q-16 55 -47 94q-33 42 -87 66q-56 25 -107 25h-867q-35 34 -48 55t-25 66l364 725h162l-348 -701h749q104 0 180 -35q74 -34 138 -104q50 -59 73 -136q23 -78 23 -155v-440h274v-146h-1880v146zM109 936h-152l379 754h151z" />
    <glyph glyph-name="uniFB9F" unicode="&#x6ba;" horiz-adv-x="1302" arabic-form="final" 
d="M723 -283q-82 0 -152 8t-119 23q-54 17 -100 41q-43 23 -90 59q-81 61 -118 158q-38 100 -38 191v776h146v-756q0 -103 29 -166q29 -61 84 -102q58 -44 135 -65q78 -21 166 -21h284v1110h146v-854h274v-146h-274v-256h-373z" />
    <glyph glyph-name="uniFBA5" unicode="&#x6c0;" horiz-adv-x="1247" arabic-form="final" 
d="M799 -27q-132 0 -258 32t-222 101q-93 67 -154 179q-59 109 -59 258q0 118 49 225q47 104 140 181q91 77 219 120q126 43 285 43h96v102h145v-1095h275v-146h-516zM895 119v848h-154q-91 0 -181 -32q-88 -31 -158 -86q-69 -54 -109 -133q-41 -80 -41 -173q0 -98 38 -179
q39 -82 103 -133q67 -53 156 -83q87 -29 192 -29h154zM590 1485q0 129 60 201q59 71 184 71h141v-145h-127q-66 0 -88 -24q-23 -25 -23 -72v-56h303v-145h-450v170z" />
    <glyph glyph-name="uniFBA7" unicode="&#x6c1;" horiz-adv-x="1091" arabic-form="final" 
d="M772 -27v994h-211q-74 0 -125 -15q-53 -16 -93 -47q-44 -34 -67 -87q-24 -54 -24 -107v-381h-146v368q0 104 35 180q33 73 105 138q61 52 136 74t155 22h381v-993h241v-146h-387z" />
    <glyph glyph-name="uniFBA8" unicode="&#x6c1;" horiz-adv-x="503" arabic-form="initial" 
d="M102 -467l117 408l146 -45l-152 -404zM-27 119h258v993h146v-1139h-404v146z" />
    <glyph glyph-name="uniFBA9" unicode="&#x6c1;" horiz-adv-x="1218" arabic-form="medial" 
d="M567 -477q-79 0 -154 22q-76 22 -137 74q-70 64 -104 138q-35 76 -35 180v36h-164v146h164v522h146v-717q0 -53 24 -107q23 -53 67 -87q40 -31 92 -47q50 -15 124 -15h139v451h557v-146h-412v-450h-307zM932 -467l117 408l145 -45l-152 -404z" />
    <glyph glyph-name="uniFBAB" unicode="&#x6be;" horiz-adv-x="1820" arabic-form="final" 
d="M106 119h297q-4 9 -16 85q-12 75 -12 148q0 118 28 214q28 97 86 167t139 109t185 39q105 0 184 -39t137 -109q57 -69 84 -167t27 -214q0 -77 -10 -147q-11 -79 -14 -86h258q11 51 22 141q10 80 10 158q0 139 -17 235q-19 105 -67 205q-70 148 -217 231q-146 82 -366 82
q-128 0 -233 -39q-111 -41 -220 -100l-61 133q155 80 278 116q129 38 285 38q112 0 217 -31q99 -29 186 -82q84 -51 149 -119t103 -143q60 -114 84 -242q25 -133 25 -258q0 -102 -11 -183q-13 -99 -22 -142h264v-146h-1782v146zM520 352q0 -78 10 -144t15 -89h530
q5 22 15 88q10 64 10 145q0 79 -19 153q-18 72 -55 122q-39 53 -89 80q-52 28 -124 28q-74 0 -128 -27q-52 -26 -91 -79q-37 -50 -55 -122q-19 -74 -19 -155z" />
    <glyph glyph-name="uniFBAC" unicode="&#x6be;" horiz-adv-x="1568" arabic-form="initial" 
d="M-68 119h297q-4 9 -16 85q-12 75 -12 148q0 118 28 214q28 97 86 167t139 109t185 39q105 0 184 -39q77 -38 136 -109q57 -69 84 -167q28 -101 28 -214q0 -77 -10 -147q-11 -79 -14 -86h258q11 51 22 141q10 80 10 158q0 139 -17 235q-19 105 -67 205q-70 148 -217 231
q-146 82 -366 82q-128 0 -233 -39q-111 -41 -220 -100l-61 133q155 80 278 116q129 38 285 38q112 0 217 -31q99 -29 186 -82q84 -51 149 -119t103 -143q60 -114 84 -242q25 -133 25 -258q0 -118 -18 -232q-19 -123 -46 -239h-1487v146zM346 352q0 -78 10 -144t15 -89h530
q1 5 14 88q11 71 11 145q0 79 -19 153q-18 72 -55 122q-39 53 -89 80q-52 28 -124 28q-74 0 -128 -27q-52 -26 -91 -79q-37 -50 -55 -122q-19 -74 -19 -155z" />
    <glyph glyph-name="uniFBAD" unicode="&#x6be;" horiz-adv-x="1646" arabic-form="medial" 
d="M-68 119h297q-4 9 -16 85q-12 75 -12 148q0 118 28 214q28 97 86 167t139 109t185 39q105 0 184 -39q77 -38 136 -109q57 -69 84 -167q28 -101 28 -214q0 -77 -10 -147q-11 -79 -14 -86h258q11 51 22 141q10 80 10 158q0 139 -17 235q-19 105 -67 205q-70 148 -217 231
q-146 82 -366 82q-128 0 -233 -39q-111 -41 -220 -100l-61 133q155 80 278 116q129 38 285 38q112 0 217 -31q99 -29 186 -82q84 -51 149 -119t103 -143q60 -114 84 -242q25 -133 25 -258q0 -94 -12 -183q-16 -115 -21 -142h264v-146h-1782v146zM346 352q0 -78 10 -144
t15 -89h530q1 5 14 88q11 71 11 145q0 79 -19 153q-18 72 -55 122q-39 53 -89 80q-52 28 -124 28q-74 0 -128 -27q-52 -26 -91 -79q-37 -50 -55 -122q-19 -74 -19 -155z" />
    <glyph glyph-name="uniFBAF" unicode="&#x6d2;" horiz-adv-x="1341" arabic-form="final" 
d="M1409 -27h-1198v4q0 -76 14 -124q16 -55 47 -94q33 -42 87 -66q56 -25 108 -25h643v-145h-631q-103 0 -179 35q-74 34 -138 104q-52 61 -74 136t-22 155v166h1343v-146z" />
    <glyph glyph-name="uniFBB1" unicode="&#x6d3;" horiz-adv-x="1341" arabic-form="final" 
d="M1409 -27h-1198v4q0 -76 14 -124q16 -55 47 -94q33 -42 87 -66q56 -25 108 -25h643v-145h-631q-103 0 -179 35q-74 34 -138 104q-52 61 -74 136t-22 155v166h1343v-146zM45 451q0 128 60 200t184 72h141v-145h-127q-65 0 -88 -24q-22 -23 -22 -73v-55h303v-145h-451v170z
" />
    <glyph glyph-name="uniFBE8" unicode="&#x649;" horiz-adv-x="503" arabic-form="initial" 
d="M-27 119h258v993h146v-1139h-404v146z" />
    <glyph glyph-name="uniFBE9" unicode="&#x649;" horiz-adv-x="583" arabic-form="medial" 
d="M-27 119h258v993h146v-993h274v-146h-678v146z" />
    <glyph glyph-name="uniFBFD" unicode="&#x6cc;" horiz-adv-x="2217" arabic-form="final" 
d="M1866 967h-211q-74 0 -125 -15q-53 -16 -93 -47q-44 -34 -67 -87q-24 -54 -24 -107v-994h-506q-82 0 -152 8q-71 8 -120 23q-52 16 -99 41q-43 23 -90 59q-81 61 -118 158q-38 100 -38 191v546h146v-526q0 -106 28 -166q29 -61 84 -102q58 -44 135 -65q78 -21 166 -21
h418v835q0 104 35 180q34 74 104 138q61 52 137 74q75 22 154 22h381v-993h275v-146h-420v994z" />
    <glyph glyph-name="uniFBFE" unicode="&#x6cc;" horiz-adv-x="727" arabic-form="initial" 
d="M-27 119h463v993h146v-1139h-609v146zM123 -451q-45 0 -78 33t-33 78t33 78t78 33t78 -33q32 -32 32 -78t-32 -78q-33 -33 -78 -33zM489 -451q-44 0 -77 33t-33 78t33 78t77 33q45 0 78 -33t33 -78t-33 -78t-78 -33z" />
    <glyph glyph-name="uniFBFF" unicode="&#x6cc;" horiz-adv-x="952" arabic-form="medial" 
d="M-27 119h463v993h146v-993h438v-146h-1047v146zM674 -451q-45 0 -78 33t-33 78t33 78t78 33t78 -33q32 -32 32 -78t-32 -78q-33 -33 -78 -33zM307 -451q-45 0 -78 33q-32 32 -32 78t32 78q33 33 78 33t78 -33t33 -78t-33 -78t-78 -33z" />
    <glyph glyph-name="uniFC5E" unicode="&#xfc5e;" arabic-form="isolated" 
d="M-92 449q-4 13 -4 51q0 82 46 137t138 55q69 0 113 -50q43 -49 43 -122q0 -21 -2 -51q-1 -11 -15 -84l-465 -68l-90 236l111 41l57 -156zM-84 -27q-50 0 -98 31q-47 30 -62 109l-22 125l114 22l25 -119q7 -34 21 -44q12 -9 28 -9q24 0 41 21q17 22 17 57q0 38 -15 115
l117 18l24 -121q4 -20 17 -33q12 -12 31 -12q28 0 40 11q13 12 13 40q0 56 -31 144l121 28q7 -48 14 -75q3 -15 7 -45t4 -41q0 -82 -48 -130q-47 -47 -129 -47q-42 0 -64 19q-21 18 -26 29q-6 -27 -39 -60t-100 -33zM16 516q0 -36 4 -49l125 18q-24 -125 -18 -57t6 80
q0 30 -13 50q-14 22 -46 22q-24 0 -41 -17t-17 -47z" />
    <glyph glyph-name="uniFC5F" unicode="&#xfc5f;" arabic-form="isolated" 
d="M-119 289q-51 0 -98 30t-62 109l-22 125l115 22l24 -118q7 -34 21 -44q13 -10 28 -10q25 0 41 21q17 22 17 57q0 39 -15 115l117 18l25 -120q5 -22 16 -33q12 -12 31 -12q28 0 40 11q13 12 13 40q0 55 -31 143l121 29q7 -51 14 -76q6 -30 8 -45q3 -22 3 -41
q0 -83 -47 -130q-46 -46 -129 -46q-44 0 -65 18t-26 29q-6 -27 -38 -59q-33 -33 -101 -33zM-209 80l512 74v-111l-512 -74v111zM-211 217l512 74v-111l-512 -74v111z" />
    <glyph glyph-name="uniFC60" unicode="&#xfc60;" arabic-form="isolated" 
d="M-111 -27q-50 0 -98 31q-46 29 -61 109l-23 125l115 22l24 -119q7 -34 21 -44q12 -9 29 -9q24 0 41 21q16 20 16 57q0 44 -14 115l116 18l25 -121q5 -22 16 -33q12 -12 31 -12q28 0 40 11q13 12 13 40q0 58 -30 144l120 28q6 -40 15 -75q3 -15 7 -45q3 -23 3 -41
q0 -83 -47 -130t-129 -47q-43 0 -65 19q-20 17 -25 29q-6 -27 -39 -60t-101 -33zM-287 485l512 74v-115l-512 -73v114z" />
    <glyph glyph-name="uniFC61" unicode="&#xfc61;" arabic-form="isolated" 
d="M-276 438l165 25q-4 13 -4 53q0 82 46 137q47 56 139 56q67 0 112 -51q43 -49 43 -121q0 -22 -2 -52q-1 -19 -14 -84l-473 -67zM-111 -27q-50 0 -98 31q-46 29 -61 109l-23 125l115 22l24 -119q7 -34 21 -44q12 -9 29 -9q24 0 41 21q16 20 16 57q0 44 -14 115l116 18
l25 -121q5 -22 16 -33q12 -12 31 -12q28 0 40 11q13 12 13 40q0 58 -30 144l120 28q6 -40 15 -75q3 -15 7 -45q3 -23 3 -41q0 -83 -47 -130t-129 -47q-43 0 -65 19q-20 17 -25 29q-6 -27 -39 -60t-101 -33zM-2 528q0 -36 4 -45l125 19q-15 -80 -18 -81q-2 -1 0 23q6 68 6 80
q0 28 -14 50t-46 22q-25 0 -41 -16t-16 -52z" />
    <glyph glyph-name="uniFC62" unicode="&#xfc62;" arabic-form="isolated" 
d="M-117 160q-52 0 -98 30q-46 29 -61 109l-23 125l115 22l24 -118q7 -34 21 -44q13 -10 28 -10q25 0 41 21q17 22 17 57q0 38 -15 115l117 18l25 -120q5 -22 16 -33q13 -13 31 -13q27 0 40 12t13 40q0 55 -31 143l121 29q6 -43 15 -76q3 -15 7 -45q3 -23 3 -41
q0 -83 -47 -130q-46 -46 -129 -46q-44 0 -65 18q-20 17 -25 29q-6 -26 -39 -59t-101 -33zM-211 84l512 74v-115l-512 -74v115z" />
    <glyph glyph-name="uniFC63" unicode="&#xfc63;" arabic-form="isolated" 
d="M-111 -27q-50 0 -98 31q-46 29 -61 109l-23 125l115 22l24 -119q7 -34 21 -44q12 -9 29 -9q24 0 41 21q16 20 16 57q0 44 -14 115l116 18l25 -121q5 -22 16 -33q12 -12 31 -12q28 0 40 11q13 12 13 40q0 58 -30 144l120 28q6 -40 15 -75q3 -15 7 -45q3 -23 3 -41
q0 -83 -47 -130t-129 -47q-43 0 -65 19q-20 17 -25 29q-6 -27 -39 -60t-101 -33zM-84 813h127v-430l-127 -18v448z" />
    <glyph glyph-name="uniFE70" unicode="&#xfe70;" arabic-form="isolated" 
d="M-59 1589l512 74v-111l-512 -73v110zM-61 1726l512 74v-110l-512 -74v110z" />
    <glyph glyph-name="uniFE72" unicode="&#xfe72;" arabic-form="isolated" 
d="M166 1583q-4 13 -4 51q0 83 46 138t138 55q69 0 113 -50q43 -49 43 -122q0 -21 -2 -51q-1 -11 -15 -84l-465 -68l-90 236l111 41l57 -156zM274 1651q0 -32 5 -49l124 18q-24 -124 -18 -57t6 79q0 31 -13 51q-14 21 -46 21q-25 0 -41 -16q-17 -17 -17 -47z" />
    <glyph glyph-name="uniFE74" unicode="&#xfe74;" arabic-form="isolated" 
d="M-59 -348l512 74v-111l-512 -74v111zM-61 -211l512 74v-111l-512 -74v111z" />
    <glyph glyph-name="uniFE76" unicode="&#xfe76;" arabic-form="isolated" 
d="M-49 1528l512 74v-115l-512 -74v115z" />
    <glyph glyph-name="uniFE78" unicode="&#xfe78;" arabic-form="isolated" 
d="M-61 1556l165 25q-4 13 -4 53q0 83 46 138t139 55q68 0 112 -50q43 -49 43 -122q0 -21 -2 -51q-1 -19 -14 -84l-473 -68zM213 1647q0 -36 4 -45l125 18q-24 -124 -18 -57t6 79q0 29 -14 51q-13 21 -46 21q-25 0 -41 -16t-16 -51z" />
    <glyph glyph-name="uniFE7A" unicode="&#xfe7a;" arabic-form="isolated" 
d="M-49 -358l512 73v-114l-512 -74v115z" />
    <glyph glyph-name="uniFE7C" unicode="&#xfe7c;" arabic-form="isolated" 
d="M88 1423q-50 0 -98 31q-47 30 -62 109l-22 125l114 22l25 -119q7 -34 21 -44q12 -9 28 -9q24 0 41 21q17 22 17 57q0 39 -15 115l117 18l25 -121q5 -22 16 -33q12 -12 31 -12q28 0 40 11q13 12 13 40q0 56 -31 144l121 28q7 -47 14 -75q3 -15 7 -45t4 -41q0 -83 -48 -131
q-46 -46 -129 -46q-42 0 -64 19q-21 18 -26 29q-6 -27 -39 -60t-100 -33z" />
    <glyph glyph-name="uniFE7E" unicode="&#xfe7e;" arabic-form="isolated" 
d="M133 1432q-77 0 -123 46q-47 47 -47 140q0 88 51 139t131 51q84 0 129 -52t45 -139q0 -86 -53 -136q-52 -49 -133 -49zM139 1536q26 0 47 14q23 15 23 66q0 46 -22 66t-48 20q-22 0 -42 -16q-21 -16 -21 -66q0 -55 18 -70q17 -14 45 -14z" />
    <glyph glyph-name="uniFE82" unicode="&#x622;" horiz-adv-x="628" arabic-form="final" 
d="M231 1440h146v-1321h319v-146h-465v1467zM45 1665h514v-145h-514v145z" />
    <glyph glyph-name="uniFE84" unicode="&#x623;" horiz-adv-x="626" arabic-form="final" 
d="M229 1440h146v-1321h319v-146h-465v1467zM96 1606q0 127 61 200q60 72 183 72h100v-145h-86q-66 0 -88 -24q-22 -23 -22 -46h262v-145h-410v88z" />
    <glyph glyph-name="uniFE86" unicode="&#x624;" horiz-adv-x="1300" arabic-form="final" 
d="M614 -477q-101 0 -179 28q-71 26 -183 91l67 129q104 -57 162 -78q69 -25 142 -25q131 0 207 62q75 62 75 172v71h-96q-133 0 -258 30q-126 30 -224 97q-100 68 -160 178q-61 111 -61 265q0 124 50 230q49 104 141 181q91 76 221 117q131 41 291 41h242v-993h317v-146
h-317v-71q0 -176 -120 -278q-119 -101 -317 -101zM252 543q0 -107 39 -186t107 -131q70 -54 160 -80q91 -27 194 -27h153v848h-153q-90 0 -183 -31q-88 -29 -160 -86q-71 -56 -114 -132t-43 -175zM623 1485q0 129 60 201q59 71 183 71h142v-145h-127q-65 0 -88 -24
q-23 -25 -23 -72v-56h303v-145h-450v170z" />
    <glyph glyph-name="uniFE88" unicode="&#x625;" horiz-adv-x="626" arabic-form="final" 
d="M350 -479q-124 0 -183 71q-61 73 -61 201v88h410v-145h-262q0 -23 22 -46q22 -24 89 -24h86v-145h-101zM229 1688h146v-1569h319v-146h-465v1715z" />
    <glyph glyph-name="uniFE8A" unicode="&#x626;" horiz-adv-x="2217" arabic-form="final" 
d="M1866 967h-211q-74 0 -125 -15q-53 -16 -93 -47q-44 -34 -67 -87q-24 -54 -24 -107v-994h-506q-82 0 -152 8q-71 8 -120 23q-52 16 -99 41q-43 23 -90 59q-81 61 -118 158q-38 100 -38 191v546h146v-526q0 -106 28 -166q29 -61 84 -102q58 -44 135 -65q78 -21 166 -21
h418v835q0 104 35 180q34 74 104 138q61 52 137 74q75 22 154 22h381v-993h275v-146h-420v994zM86 1090q0 128 60 200t184 72h141v-145h-127q-66 0 -88 -24q-23 -25 -23 -73v-55h304v-145h-451v170z" />
    <glyph glyph-name="uniFE8B" unicode="&#x626;" horiz-adv-x="544" arabic-form="initial" 
d="M-27 119h258v993h146v-1139h-404v146zM90 1485q0 128 61 201q59 71 183 71h141v-145h-127q-66 0 -88 -24q-22 -23 -22 -72v-56h303v-145h-451v170z" />
    <glyph glyph-name="uniFE8C" unicode="&#x626;" horiz-adv-x="583" arabic-form="medial" 
d="M-27 119h258v993h146v-993h274v-146h-678v146zM84 1485q0 129 60 201q59 71 184 71h141v-145h-127q-66 0 -88 -24q-23 -25 -23 -72v-56h304v-145h-451v170z" />
    <glyph glyph-name="uniFE8E" unicode="&#x627;" horiz-adv-x="636" arabic-form="final" 
d="M240 1688h145v-1569h320v-146h-465v1715z" />
    <glyph glyph-name="uniFE90" unicode="&#x628;" horiz-adv-x="1712" arabic-form="final" 
d="M723 -27q-82 0 -152 8t-119 23q-54 17 -100 41q-43 23 -90 59q-81 61 -118 158q-38 100 -38 191v456h146v-436q0 -103 29 -166q29 -61 84 -102q58 -44 135 -65q78 -21 166 -21h694v993h145v-993h275v-146h-1057zM913 -451q-44 0 -77 33t-33 78t33 78t77 33q45 0 78 -33
t33 -78t-33 -78t-78 -33z" />
    <glyph glyph-name="uniFE91" unicode="&#x628;" horiz-adv-x="499" arabic-form="initial" 
d="M-27 119h258v993h146v-1139h-404v146zM303 -451q-45 0 -78 33q-32 32 -32 78t32 78q33 33 78 33t78 -33t33 -78t-33 -78t-78 -33z" />
    <glyph glyph-name="uniFE92" unicode="&#x628;" horiz-adv-x="583" arabic-form="medial" 
d="M-27 119h258v993h146v-993h274v-146h-678v146zM305 -451q-45 0 -78 33q-32 32 -32 78t32 78q33 33 78 33t78 -33t33 -78t-33 -78t-78 -33z" />
    <glyph glyph-name="uniFE94" unicode="&#x629;" horiz-adv-x="1247" arabic-form="final" 
d="M799 -27q-132 0 -258 32t-222 101q-93 67 -154 179q-59 109 -59 258q0 118 49 225q47 104 140 181q91 77 219 120q126 43 285 43h96v102h145v-1095h275v-146h-516zM895 119v848h-154q-91 0 -181 -32q-88 -31 -158 -86q-69 -54 -109 -133q-41 -80 -41 -173q0 -98 38 -179
q39 -82 103 -133q67 -53 156 -83q87 -29 192 -29h154zM592 1403q-45 0 -78 33t-33 77q0 45 33 78t78 33t78 -33q32 -32 32 -78q0 -45 -32 -77q-33 -33 -78 -33zM958 1403q-44 0 -77 33t-33 77q0 45 33 78t77 33q45 0 78 -33t33 -78q0 -44 -33 -77t-78 -33z" />
    <glyph glyph-name="uniFE96" unicode="&#x62a;" horiz-adv-x="1712" arabic-form="final" 
d="M723 -27q-82 0 -152 8t-119 23q-54 17 -100 41q-43 23 -90 59q-81 61 -118 158q-38 100 -38 191v456h146v-436q0 -103 29 -166q29 -61 84 -102q58 -44 135 -65q78 -21 166 -21h694v993h145v-993h275v-146h-1057zM1014 1118q-45 0 -78 33t-33 78t33 78q32 32 78 32t78 -32
t32 -78t-32 -78q-33 -33 -78 -33zM647 1118q-45 0 -78 33q-32 32 -32 78t32 78t78 32t78 -32q33 -33 33 -78t-33 -78t-78 -33z" />
    <glyph glyph-name="uniFE97" unicode="&#x62a;" horiz-adv-x="823" arabic-form="initial" 
d="M-27 119h463v993h146v-1139h-609v146zM311 1323q-45 0 -78 33q-32 32 -32 78q0 45 32 77q33 33 78 33t78 -33t33 -77q0 -45 -33 -78t-78 -33zM678 1323q-45 0 -78 33t-33 78q0 44 33 77t78 33t78 -33q32 -32 32 -77q0 -46 -32 -78q-33 -33 -78 -33z" />
    <glyph glyph-name="uniFE98" unicode="&#x62a;" horiz-adv-x="952" arabic-form="medial" 
d="M-27 119h463v993h146v-993h438v-146h-1047v146zM676 1323q-45 0 -78 33t-33 78q0 44 33 77t78 33t78 -33q32 -32 32 -77q0 -46 -32 -78q-33 -33 -78 -33zM309 1323q-45 0 -78 33q-32 32 -32 78q0 45 32 77q33 33 78 33t78 -33t33 -77q0 -45 -33 -78t-78 -33z" />
    <glyph glyph-name="uniFE9A" unicode="&#x62b;" horiz-adv-x="1712" arabic-form="final" 
d="M723 -27q-82 0 -152 8t-119 23q-54 17 -100 41q-43 23 -90 59q-81 61 -118 158q-38 100 -38 191v456h146v-436q0 -103 29 -166q29 -61 84 -102q58 -44 135 -65q78 -21 166 -21h694v993h145v-993h275v-146h-1057zM1018 1118q-45 0 -78 33t-33 78t33 78q32 32 78 32t78 -32
t32 -78t-32 -78q-33 -33 -78 -33zM834 1393q-46 0 -78 32q-33 33 -33 78t33 78t78 33q44 0 77 -33t33 -78t-33 -78q-32 -32 -77 -32zM651 1118q-45 0 -78 33q-32 32 -32 78t32 78t78 32t78 -32q33 -33 33 -78t-33 -78t-78 -33z" />
    <glyph glyph-name="uniFE9B" unicode="&#x62b;" horiz-adv-x="813" arabic-form="initial" 
d="M-27 119h463v993h146v-1139h-609v146zM301 1323q-45 0 -78 33t-33 78q0 44 33 77t78 33t78 -33t33 -77q0 -45 -33 -78t-78 -33zM483 1597q-44 0 -77 33t-33 78t33 78t77 33q45 0 78 -33t33 -78t-33 -78t-78 -33zM668 1323q-45 0 -78 33t-33 78q0 44 33 77t78 33
q44 0 77 -33t33 -77q0 -45 -33 -78t-77 -33z" />
    <glyph glyph-name="uniFE9C" unicode="&#x62b;" horiz-adv-x="952" arabic-form="medial" 
d="M-27 119h463v993h146v-993h438v-146h-1047v146zM485 1597q-44 0 -77 33t-33 78t33 78t77 33q45 0 78 -33t33 -78t-33 -78t-78 -33zM303 1323q-45 0 -78 33q-32 32 -32 78q0 45 32 77q33 33 78 33t78 -33t33 -77q0 -45 -33 -78t-78 -33zM670 1323q-45 0 -78 33t-33 78
q0 44 33 77t78 33t78 -33q32 -32 32 -77q0 -46 -32 -78q-33 -33 -78 -33z" />
    <glyph glyph-name="uniFE9E" unicode="&#x62c;" horiz-adv-x="1204" arabic-form="final" 
d="M190 -41q0 -92 26 -176q25 -80 89 -201l-112 -69q-49 82 -68 119q-26 51 -43 102q-20 58 -28 112q-9 60 -9 134q0 22 3 58q2 30 11 81h797q19 68 31 172q12 108 12 289q0 88 -27 161q-28 76 -100 138q-49 39 -119 63q-72 25 -164 25q-74 0 -164 -28q-88 -27 -182 -99
l-55 139q61 38 116 65q51 25 95 38q53 16 103 23t122 7q96 0 184 -33q89 -33 154 -88q91 -74 137 -183q48 -113 48 -259q0 -129 -15 -250q-17 -134 -28 -180h268v-146h-1082v-14zM578 -451q-45 0 -78 33t-33 78t33 78t78 33q44 0 77 -33t33 -78t-33 -78t-77 -33z" />
    <glyph glyph-name="uniFE9F" unicode="&#x62c;" horiz-adv-x="1191" arabic-form="initial" 
d="M-27 119h942q19 68 31 172q12 108 12 289q0 90 -26 161q-28 75 -101 138q-50 39 -118 63q-72 25 -164 25q-75 0 -165 -28q-86 -27 -181 -99l-56 139q61 38 116 65q51 25 95 38q52 16 104 23q50 7 122 7q94 0 183 -33q90 -34 155 -88q91 -74 137 -183q47 -111 47 -259
q0 -82 -6 -163q-6 -76 -17 -154q-13 -87 -23 -134q-14 -63 -36 -125h-1051v146zM561 -451q-45 0 -78 33q-32 32 -32 78t32 78q33 33 78 33t78 -33t33 -78t-33 -78t-78 -33z" />
    <glyph glyph-name="uniFEA0" unicode="&#x62c;" horiz-adv-x="1263" arabic-form="medial" 
d="M-27 119h942q19 68 31 172q12 108 12 289q0 90 -26 161q-28 75 -101 138q-50 39 -118 63q-72 25 -164 25q-75 0 -165 -28q-86 -27 -181 -99l-56 139q61 38 116 65q51 25 95 38q52 16 104 23q50 7 122 7q94 0 183 -33q90 -34 155 -88q91 -74 137 -183q47 -111 47 -259
q0 -137 -14 -250q-16 -126 -29 -180h268v-146h-1358v146zM561 -451q-45 0 -78 33q-32 32 -32 78t32 78q33 33 78 33t78 -33t33 -78t-33 -78t-78 -33z" />
    <glyph glyph-name="uniFEA2" unicode="&#x62d;" horiz-adv-x="1204" arabic-form="final" 
d="M193 -487q-49 82 -68 119q-26 51 -43 102q-20 58 -28 112q-9 60 -9 134q0 22 3 58q2 30 11 81h797q19 68 31 172q12 108 12 289q0 88 -27 161q-28 76 -100 138q-49 39 -119 63q-72 25 -164 25q-74 0 -164 -28q-88 -27 -182 -99l-55 139q61 38 116 65q51 25 95 38
q53 16 103 23t122 7q96 0 184 -33q89 -33 154 -88q91 -74 137 -183q48 -113 48 -259q0 -129 -15 -250q-17 -134 -28 -180h268v-146h-1082v-14q0 -92 26 -176q25 -80 89 -201z" />
    <glyph glyph-name="uniFEA3" unicode="&#x62d;" horiz-adv-x="1191" arabic-form="initial" 
d="M-27 119h942q19 68 31 172q12 108 12 289q0 90 -26 161q-28 75 -101 138q-50 39 -118 63q-72 25 -164 25q-75 0 -165 -28q-86 -27 -181 -99l-56 139q61 38 116 65q51 25 95 38q52 16 104 23q50 7 122 7q94 0 183 -33q90 -34 155 -88q91 -74 137 -183q47 -111 47 -259
q0 -82 -6 -163q-6 -76 -17 -154q-13 -87 -23 -134q-14 -63 -36 -125h-1051v146z" />
    <glyph glyph-name="uniFEA4" unicode="&#x62d;" horiz-adv-x="1263" arabic-form="medial" 
d="M-27 119h942q19 68 31 172q12 108 12 289q0 90 -26 161q-28 75 -101 138q-50 39 -118 63q-72 25 -164 25q-75 0 -165 -28q-86 -27 -181 -99l-56 139q61 38 116 65q51 25 95 38q52 16 104 23q50 7 122 7q94 0 183 -33q90 -34 155 -88q91 -74 137 -183q47 -111 47 -259
q0 -137 -14 -250q-16 -126 -29 -180h268v-146h-1358v146z" />
    <glyph glyph-name="uniFEA6" unicode="&#x62e;" horiz-adv-x="1204" arabic-form="final" 
d="M190 -41q0 -92 26 -176q25 -80 89 -201l-112 -69q-49 82 -68 119q-26 51 -43 102q-20 58 -28 112q-9 60 -9 134q0 22 3 58q2 30 11 81h797q19 68 31 172q12 108 12 289q0 88 -27 161q-28 76 -100 138q-49 39 -119 63q-72 25 -164 25q-74 0 -164 -28q-88 -27 -182 -99
l-55 139q61 38 116 65q51 25 95 38q53 16 103 23t122 7q96 0 184 -33q89 -33 154 -88q91 -74 137 -183q48 -113 48 -259q0 -129 -15 -250q-17 -134 -28 -180h268v-146h-1082v-14zM516 1298q-45 0 -78 33q-32 32 -32 78t32 78q33 33 78 33t78 -33t33 -78t-33 -78t-78 -33z
" />
    <glyph glyph-name="uniFEA7" unicode="&#x62e;" horiz-adv-x="1191" arabic-form="initial" 
d="M-27 119h942q19 68 31 172q12 108 12 289q0 90 -26 161q-28 75 -101 138q-50 39 -118 63q-72 25 -164 25q-75 0 -165 -28q-86 -27 -181 -99l-56 139q61 38 116 65q51 25 95 38q52 16 104 23q50 7 122 7q94 0 183 -33q90 -34 155 -88q91 -74 137 -183q47 -111 47 -259
q0 -82 -6 -163q-6 -76 -17 -154q-13 -87 -23 -134q-14 -63 -36 -125h-1051v146zM557 1323q-45 0 -78 33t-33 78q0 44 33 77t78 33t78 -33t33 -77q0 -45 -33 -78t-78 -33z" />
    <glyph glyph-name="uniFEA8" unicode="&#x62e;" horiz-adv-x="1263" arabic-form="medial" 
d="M-27 119h942q19 68 31 172q12 108 12 289q0 90 -26 161q-28 75 -101 138q-50 39 -118 63q-72 25 -164 25q-75 0 -165 -28q-86 -27 -181 -99l-56 139q61 38 116 65q51 25 95 38q52 16 104 23q50 7 122 7q94 0 183 -33q90 -34 155 -88q91 -74 137 -183q47 -111 47 -259
q0 -137 -14 -250q-16 -126 -29 -180h268v-146h-1358v146zM557 1323q-45 0 -78 33t-33 78q0 44 33 77t78 33t78 -33t33 -77q0 -45 -33 -78t-78 -33z" />
    <glyph glyph-name="uniFEAA" unicode="&#x62f;" horiz-adv-x="1191" arabic-form="final" 
d="M45 119h795v538q0 74 -15 125q-16 55 -47 94q-33 42 -87 66q-56 25 -107 25h-176v145h163q104 0 180 -35q74 -34 138 -104q52 -61 74 -136t22 -155v-563h275v-146h-1215v146z" />
    <glyph glyph-name="uniFEAC" unicode="&#x630;" horiz-adv-x="1191" arabic-form="final" 
d="M45 119h795v538q0 74 -15 125q-16 55 -47 94q-33 42 -87 66q-56 25 -107 25h-176v145h163q104 0 180 -35q74 -34 138 -104q52 -61 74 -136t22 -155v-563h275v-146h-1215v146zM539 1298q-45 0 -78 33t-33 78t33 78t78 33q44 0 77 -33t33 -78t-33 -78t-77 -33z" />
    <glyph glyph-name="uniFEAE" unicode="&#x631;" horiz-adv-x="716" arabic-form="final" 
d="M174 -479q-56 0 -137 35l53 135q62 -25 92 -25q48 0 76 20q26 19 41 52q13 29 18 77t5 85v1212h145v-993h317v-146h-317v-73q0 -80 -11 -143q-12 -71 -43 -122q-33 -55 -90 -84q-59 -30 -149 -30z" />
    <glyph glyph-name="uniFEB0" unicode="&#x632;" horiz-adv-x="716" arabic-form="final" 
d="M174 -479q-56 0 -137 35l53 135q62 -25 92 -25q48 0 76 20q26 19 41 52q13 29 18 77t5 85v1212h145v-993h317v-146h-317v-73q0 -80 -11 -143q-12 -71 -43 -122q-33 -55 -90 -84q-59 -30 -149 -30zM395 1323q-45 0 -78 33q-32 32 -32 78q0 45 32 77q33 33 78 33t78 -33
t33 -77q0 -45 -33 -78t-78 -33z" />
    <glyph glyph-name="uniFEB2" unicode="&#x633;" horiz-adv-x="2983" arabic-form="final" 
d="M743 -283q-81 0 -151 8q-71 8 -120 23q-52 16 -99 41q-43 23 -90 59q-81 61 -118 158q-38 100 -38 191v776h145v-756q0 -103 29 -166q29 -61 84 -102q58 -44 135 -65q78 -21 166 -21h285v1249h145v-993h361q111 0 180 66t69 196v629h146v-613q1 -57 26 -114
q23 -53 69 -99q42 -42 107 -67q66 -25 140 -25q159 0 235 88t76 232v843h146v-823q0 -36 -3 -68q-3 -28 -8 -53q39 -90 121 -141q83 -51 271 -51v-146q-128 0 -200 18q-75 19 -125 46q-53 29 -87 66q-11 12 -19 20.5t-12 12.5t-4 3q-30 -73 -137 -130q-105 -56 -254 -56
q-145 0 -258 61q-117 63 -146 127q-22 -48 -115 -108t-218 -60h-361v-256h-373z" />
    <glyph glyph-name="uniFEB3" unicode="&#x633;" horiz-adv-x="2242" arabic-form="initial" 
d="M-27 119h463v891h146v-891h360q111 0 180 66q70 67 70 196v629h145v-598q0 -61 24 -121t67 -103q40 -40 108 -69q63 -27 143 -27q160 0 236 88t76 232v843h145v-823q0 -248 -124 -363q-125 -116 -333 -116q-145 0 -258 61q-116 62 -145 127q-21 -47 -116 -108
q-93 -60 -218 -60h-969v146z" />
    <glyph glyph-name="uniFEB4" unicode="&#x633;" horiz-adv-x="2451" arabic-form="medial" 
d="M-27 119h463v891h146v-891h360q111 0 180 66q70 67 70 196v629h145v-598q0 -61 24 -121t67 -103q40 -40 108 -69q63 -27 143 -27q160 0 236 88t76 232v843h145v-823q0 -36 -3 -66q-3 -34 -7 -51q23 -47 50 -81q30 -38 72 -63q43 -26 101 -39t170 -13v-146q-128 0 -200 18
q-78 19 -126 47q-55 31 -89 67q-9 9 -18.5 19.5t-12 13t-2.5 1.5q-30 -71 -138 -129q-107 -57 -254 -57q-145 0 -258 61q-116 62 -145 127q-21 -47 -116 -108q-93 -60 -218 -60h-969v146z" />
    <glyph glyph-name="uniFEB6" unicode="&#x634;" horiz-adv-x="2983" arabic-form="final" 
d="M743 -283q-81 0 -151 8q-71 8 -120 23q-52 16 -99 41q-43 23 -90 59q-81 61 -118 158q-38 100 -38 191v776h145v-756q0 -103 29 -166q29 -61 84 -102q58 -44 135 -65q78 -21 166 -21h285v1249h145v-993h361q111 0 180 66t69 196v629h146v-613q1 -57 26 -114
q23 -53 69 -99q42 -42 107 -67q66 -25 140 -25q159 0 235 88t76 232v843h146v-823q0 -36 -3 -68q-3 -28 -8 -53q39 -90 121 -141q83 -51 271 -51v-146q-128 0 -200 18q-75 19 -125 46q-53 29 -87 66q-11 12 -19 20.5t-12 12.5t-4 3q-30 -73 -137 -130q-105 -56 -254 -56
q-145 0 -258 61q-117 63 -146 127q-22 -48 -115 -108t-218 -60h-361v-256h-373zM1982 1323q-44 0 -77 33t-33 78q0 44 33 77t77 33q45 0 78 -33t33 -77q0 -45 -33 -78t-78 -33zM1616 1323q-45 0 -78 33t-33 78q0 44 33 77t78 33t78 -33q32 -32 32 -77q0 -46 -32 -78
q-33 -33 -78 -33zM1798 1597q-45 0 -78 33q-32 32 -32 78t32 78q33 33 78 33t78 -33t33 -78t-33 -78t-78 -33z" />
    <glyph glyph-name="uniFEB7" unicode="&#x634;" horiz-adv-x="2242" arabic-form="initial" 
d="M-27 119h463v891h146v-891h360q111 0 180 66q70 67 70 196v629h145v-598q0 -61 24 -121t67 -103q40 -40 108 -69q63 -27 143 -27q160 0 236 88t76 232v843h145v-823q0 -248 -124 -363q-125 -116 -333 -116q-145 0 -258 61q-116 62 -145 127q-21 -47 -116 -108
q-93 -60 -218 -60h-969v146zM1077 1323q-45 0 -78 33q-32 32 -32 78q0 45 32 77q33 33 78 33t78 -33t33 -77q0 -45 -33 -78t-78 -33zM1260 1597q-45 0 -78 33t-33 78t33 78t78 33q44 0 77 -33t33 -78t-33 -78t-77 -33zM1444 1323q-45 0 -78 33t-33 78q0 44 33 77t78 33
t78 -33q32 -32 32 -77q0 -46 -32 -78q-33 -33 -78 -33z" />
    <glyph glyph-name="uniFEB8" unicode="&#x634;" horiz-adv-x="2451" arabic-form="medial" 
d="M-27 119h463v891h146v-891h360q111 0 180 66q70 67 70 196v629h145v-613q1 -55 27 -114q23 -53 69 -99q43 -43 106 -67q66 -25 140 -25q160 0 236 88t76 232v843h145v-823q0 -37 -3 -67q-4 -36 -7 -52q21 -44 50 -80q28 -36 72 -62q43 -26 101 -39t170 -13v-146
q-128 0 -200 18q-78 19 -126 47q-55 31 -89 67q-9 9 -18.5 19.5t-12 13t-2.5 1.5q-30 -71 -138 -129q-107 -57 -254 -57q-145 0 -258 61q-116 62 -145 127q-21 -47 -116 -108q-93 -60 -218 -60h-969v146zM1442 1323q-45 0 -78 33t-33 78q0 44 33 77t78 33t78 -33
q32 -32 32 -77q0 -46 -32 -78q-33 -33 -78 -33zM1075 1323q-45 0 -78 33q-32 32 -32 78q0 45 32 77q33 33 78 33t78 -33t33 -77q0 -45 -33 -78t-78 -33zM1257 1597q-44 0 -77 33t-33 78t33 78t77 33q45 0 78 -33t33 -78t-33 -78t-78 -33z" />
    <glyph glyph-name="uniFEBA" unicode="&#x635;" horiz-adv-x="2510" arabic-form="final" 
d="M743 -283q-81 0 -151 8q-71 8 -120 23q-52 16 -99 41q-43 23 -90 59q-81 61 -118 158q-38 100 -38 191v776h145v-756q0 -103 29 -166q29 -61 84 -102q58 -44 135 -65q78 -21 166 -21h285v1249h145v-139h774q104 0 180 -35q74 -34 138 -104q50 -59 73 -137t23 -154v-424
h274v-146h-1462v-256h-373zM1116 827v-708h1043v399q0 74 -15 125q-16 53 -47 93q-34 44 -87 67q-54 24 -107 24h-787z" />
    <glyph glyph-name="uniFEBB" unicode="&#x635;" horiz-adv-x="1714" arabic-form="initial" 
d="M-27 119h320v993h145v-139h756q103 0 179 -35q74 -34 138 -104q52 -61 74 -137q23 -78 23 -154v-570h-1635v146zM438 827v-708h1024v399q0 77 -14 125q-16 53 -47 93q-34 44 -87 67q-54 24 -108 24h-768z" />
    <glyph glyph-name="uniFEBC" unicode="&#x635;" horiz-adv-x="1814" arabic-form="medial" 
d="M-27 119h320v993h145v-139h756q103 0 179 -35q74 -34 138 -104q52 -61 74 -137q23 -78 23 -154v-424h274v-146h-1909v146zM438 827v-708h1024v399q0 77 -14 125q-16 53 -47 93q-34 44 -87 67q-54 24 -108 24h-768z" />
    <glyph glyph-name="uniFEBE" unicode="&#x636;" horiz-adv-x="2510" arabic-form="final" 
d="M1116 -283h-373q-81 0 -151 8q-71 8 -120 23q-52 16 -99 41q-43 23 -90 59q-81 61 -118 158q-38 100 -38 191v776h145v-756q0 -103 29 -166q29 -61 84 -102q58 -44 135 -65q78 -21 166 -21h285v1249h145v-139h774q104 0 180 -35q74 -34 138 -104q50 -59 73 -137t23 -154
v-424h274v-146h-1462v-256zM1116 827v-708h1043v399q0 74 -15 125q-16 53 -47 93q-34 44 -87 67q-54 24 -107 24h-787zM1591 1202q-45 0 -78 33q-32 32 -32 78t32 78t78 32t78 -32q33 -33 33 -78t-33 -78t-78 -33z" />
    <glyph glyph-name="uniFEBF" unicode="&#x636;" horiz-adv-x="1714" arabic-form="initial" 
d="M-27 119h320v993h145v-139h756q103 0 179 -35q74 -34 138 -104q52 -61 74 -137q23 -78 23 -154v-570h-1635v146zM438 827v-708h1024v399q0 77 -14 125q-16 53 -47 93q-34 44 -87 67q-54 24 -108 24h-768zM922 1202q-45 0 -78 33t-33 78t33 78q32 32 78 32q45 0 77 -32
q33 -33 33 -78t-33 -78t-77 -33z" />
    <glyph glyph-name="uniFEC0" unicode="&#x636;" horiz-adv-x="1814" arabic-form="medial" 
d="M-27 119h320v993h145v-139h756q103 0 179 -35q74 -34 138 -104q52 -61 74 -137q23 -78 23 -154v-424h274v-146h-1909v146zM438 827v-708h1024v399q0 77 -14 125q-16 53 -47 93q-34 44 -87 67q-54 24 -108 24h-768zM922 1202q-45 0 -78 33t-33 78t33 78q32 32 78 32
q45 0 77 -32q33 -33 33 -78t-33 -78t-77 -33z" />
    <glyph glyph-name="uniFEC2" unicode="&#x637;" horiz-adv-x="1886" arabic-form="final" 
d="M45 119h320v1569h145v-715h756q103 0 179 -35q74 -34 138 -104q52 -61 74 -137q22 -75 22 -154v-424h275v-146h-1909v146zM510 827v-708h1024v399q0 77 -14 125q-16 53 -47 93q-34 43 -88 67t-107 24h-768z" />
    <glyph glyph-name="uniFEC3" unicode="&#x637;" horiz-adv-x="1714" arabic-form="initial" 
d="M-27 119h320v1569h145v-715h756q103 0 179 -35q74 -34 138 -104q52 -61 74 -137q23 -78 23 -154v-570h-1635v146zM438 827v-708h1024v399q0 77 -14 125q-16 53 -47 93q-34 44 -87 67q-54 24 -108 24h-768z" />
    <glyph glyph-name="uniFEC4" unicode="&#x637;" horiz-adv-x="1814" arabic-form="medial" 
d="M-27 119h320v1569h145v-715h756q103 0 179 -35q74 -34 138 -104q52 -61 74 -137q23 -78 23 -154v-424h274v-146h-1909v146zM438 827v-708h1024v399q0 77 -14 125q-16 53 -47 93q-34 44 -87 67q-54 24 -108 24h-768z" />
    <glyph glyph-name="uniFEC6" unicode="&#x638;" horiz-adv-x="1886" arabic-form="final" 
d="M45 119h320v1569h145v-715h756q103 0 179 -35q74 -34 138 -104q52 -61 74 -137q22 -75 22 -154v-424h275v-146h-1909v146zM510 827v-708h1024v399q0 77 -14 125q-16 53 -47 93q-34 43 -88 67t-107 24h-768zM993 1202q-45 0 -78 33q-32 32 -32 78t32 78t78 32t78 -32
q33 -33 33 -78t-33 -78t-78 -33z" />
    <glyph glyph-name="uniFEC7" unicode="&#x638;" horiz-adv-x="1714" arabic-form="initial" 
d="M-27 119h320v1569h145v-715h756q103 0 179 -35q74 -34 138 -104q52 -61 74 -137q23 -78 23 -154v-570h-1635v146zM438 827v-708h1024v399q0 77 -14 125q-16 53 -47 93q-34 44 -87 67q-54 24 -108 24h-768zM922 1202q-45 0 -78 33t-33 78t33 78q32 32 78 32q45 0 77 -32
q33 -33 33 -78t-33 -78t-77 -33z" />
    <glyph glyph-name="uniFEC8" unicode="&#x638;" horiz-adv-x="1814" arabic-form="medial" 
d="M-27 119h320v1569h145v-715h756q103 0 179 -35q74 -34 138 -104q52 -61 74 -137q23 -78 23 -154v-424h274v-146h-1909v146zM438 827v-708h1024v399q0 77 -14 125q-16 53 -47 93q-34 44 -87 67q-54 24 -108 24h-768zM922 1202q-45 0 -78 33t-33 78t33 78q32 32 78 32
q45 0 77 -32q33 -33 33 -78t-33 -78t-77 -33z" />
    <glyph glyph-name="uniFECA" unicode="&#x639;" horiz-adv-x="1472" arabic-form="final" 
d="M233 -487q-43 72 -67 119q-26 51 -43 102q-20 58 -28 112q-9 60 -9 134q0 22 3 58q3 30 11 81h346l-286 729q146 126 301 194q160 70 311 70q149 0 309 -70q157 -69 305 -194l-301 -729h455v-146h-1309v-14q0 -92 26 -176q25 -80 89 -201zM772 967q-116 0 -232 -45
q-118 -46 -206 -121l278 -682h318l280 682q-24 23 -78 54q-51 30 -115 57q-56 24 -124 40q-63 15 -121 15z" />
    <glyph glyph-name="uniFECB" unicode="&#x639;" horiz-adv-x="1267" arabic-form="initial" 
d="M-27 119h287l-33 59q-26 51 -48 113q-23 65 -35 125q-13 64 -13 133q0 150 58 259q59 110 147 183q65 55 154 88q88 33 184 33q70 0 120 -7q51 -7 102 -23q44 -14 94 -38q55 -27 116 -65l-51 -139q-94 72 -182 99q-90 28 -164 28q-92 0 -164 -25q-70 -24 -119 -63
q-147 -125 -147 -299q0 -91 13 -157q14 -70 34 -125q19 -52 45 -99l47 -80h743v-146h-1188v146z" />
    <glyph glyph-name="uniFECC" unicode="&#x639;" horiz-adv-x="1402" arabic-form="medial" 
d="M-27 119h404l-287 729q146 126 301 194q160 70 311 70q150 0 310 -70q157 -69 305 -194l-301 -729h454v-146h-1497v146zM702 967q-116 0 -232 -45q-118 -46 -206 -121l279 -682h317l281 682q-22 21 -79 54q-51 30 -115 57q-56 24 -124 40q-63 15 -121 15z" />
    <glyph glyph-name="uniFECE" unicode="&#x63a;" horiz-adv-x="1472" arabic-form="final" 
d="M233 -487q-43 72 -67 119q-26 51 -43 102q-20 58 -28 112q-9 60 -9 134q0 22 3 58q3 30 11 81h346l-286 729q146 126 301 194q160 70 311 70q149 0 309 -70q157 -69 305 -194l-301 -729h455v-146h-1309v-14q0 -92 26 -176q25 -80 89 -201zM772 967q-116 0 -232 -45
q-118 -46 -206 -121l278 -682h318l280 682q-24 23 -78 54q-51 30 -115 57q-56 24 -124 40q-63 15 -121 15zM770 1323q-45 0 -78 33t-33 78q0 44 33 77t78 33t78 -33t33 -77q0 -45 -33 -78t-78 -33z" />
    <glyph glyph-name="uniFECF" unicode="&#x63a;" horiz-adv-x="1267" arabic-form="initial" 
d="M-27 119h287l-33 59q-26 51 -48 113q-23 65 -35 125q-13 64 -13 133q0 150 58 259q59 110 147 183q65 55 154 88q88 33 184 33q70 0 120 -7q51 -7 102 -23q44 -14 94 -38q55 -27 116 -65l-51 -139q-94 72 -182 99q-90 28 -164 28q-92 0 -164 -25q-70 -24 -119 -63
q-147 -125 -147 -299q0 -91 13 -157q14 -70 34 -125q19 -52 45 -99l47 -80h743v-146h-1188v146zM657 1323q-44 0 -77 33t-33 78q0 44 33 77t77 33q45 0 78 -33t33 -77q0 -45 -33 -78t-78 -33z" />
    <glyph glyph-name="uniFED0" unicode="&#x63a;" horiz-adv-x="1402" arabic-form="medial" 
d="M-27 119h404l-287 729q146 126 301 194q160 70 311 70q150 0 310 -70q157 -69 305 -194l-301 -729h454v-146h-1497v146zM702 967q-116 0 -232 -45q-118 -46 -206 -121l279 -682h317l281 682q-22 21 -79 54q-51 30 -115 57q-56 24 -124 40q-63 15 -121 15zM696 1323
q-45 0 -78 33q-32 32 -32 78q0 45 32 77q33 33 78 33t78 -33t33 -77q0 -45 -33 -78t-78 -33z" />
    <glyph glyph-name="uniFED2" unicode="&#x641;" horiz-adv-x="2131" arabic-form="final" 
d="M723 -27q-82 0 -152 8t-119 23q-54 17 -100 41q-43 23 -90 59q-81 61 -118 158q-38 100 -38 191v456h146v-436q0 -103 29 -166q29 -61 84 -102q58 -44 135 -65q78 -21 166 -21h483q-37 27 -113 143q-75 115 -75 283q0 119 44 225q43 104 131 181t215 119t291 42h283v-993
h275v-146h-1477zM1106 545q0 -144 84 -252t207 -174h383v848h-195q-101 0 -186 -30q-88 -31 -152 -86q-66 -57 -103 -134q-38 -79 -38 -172zM1581 1323q-45 0 -78 33t-33 78q0 44 33 77t78 33t78 -33t33 -77q0 -45 -33 -78t-78 -33z" />
    <glyph glyph-name="uniFED3" unicode="&#x641;" horiz-adv-x="1284" arabic-form="initial" 
d="M-27 119h430q-45 29 -71 55q-25 25 -62 84q-35 56 -57 130q-20 67 -20 157q0 126 46 230q47 105 135 180q89 76 215 116q128 41 288 41h280v-1139h-1184v146zM338 545q0 -79 23 -141q24 -64 63 -117q41 -55 93 -97q49 -40 112 -71h383v848h-193q-90 0 -180 -29
q-87 -28 -155 -82q-65 -52 -106 -132q-40 -79 -40 -179zM836 1323q-45 0 -78 33t-33 78q0 44 33 77t78 33q44 0 77 -33t33 -77q0 -45 -33 -78t-77 -33z" />
    <glyph glyph-name="uniFED4" unicode="&#x641;" horiz-adv-x="1366" arabic-form="medial" 
d="M-27 119h430q-45 29 -71 55q-25 25 -62 84q-35 56 -57 130q-20 67 -20 157q0 126 46 230q47 105 135 180q89 76 215 116q128 41 288 41h280v-901l-31 -92h308v-146h-1461v146zM338 545q0 -79 23 -141q24 -64 63 -117q41 -55 93 -97q49 -40 112 -71h383v848h-193
q-90 0 -180 -29q-87 -28 -155 -82q-65 -52 -106 -132q-40 -79 -40 -179zM834 1323q-45 0 -78 33t-33 78q0 44 33 77t78 33q44 0 77 -33t33 -77q0 -45 -33 -78t-77 -33z" />
    <glyph glyph-name="uniFED6" unicode="&#x642;" horiz-adv-x="1775" arabic-form="final" 
d="M723 -477q-90 0 -152 7q-64 7 -119 24q-59 18 -100 40q-39 21 -90 60q-81 61 -118 158q-38 100 -38 190v547h146v-526q0 -103 29 -166t84 -103q56 -43 135 -64q82 -22 166 -22h714v305h-96q-140 0 -264 30t-223 96q-98 65 -157 176q-58 109 -58 268q0 120 48 225
q47 104 140 181q92 77 222 120q129 43 292 43h242v-993h317v-146h-317v-450h-803zM727 543q0 -106 38 -187q37 -80 105 -132q66 -51 160 -79q88 -26 197 -26h153v848h-153q-97 0 -190 -32q-88 -30 -159 -86q-70 -55 -110 -133q-41 -80 -41 -173zM1389 1323q-45 0 -78 33
t-33 78q0 44 33 77t78 33q44 0 77 -33t33 -77q0 -45 -33 -78t-77 -33zM1022 1323q-45 0 -78 33t-33 78q0 44 33 77t78 33t78 -33t33 -77q0 -45 -33 -78t-78 -33z" />
    <glyph glyph-name="uniFED7" unicode="&#x642;" horiz-adv-x="1284" arabic-form="initial" 
d="M-27 119h430q-45 29 -71 55q-25 25 -62 84q-35 56 -57 130q-20 67 -20 157q0 126 46 230q47 105 135 180q89 76 215 116q128 41 288 41h280v-1139h-1184v146zM338 545q0 -79 23 -141q24 -64 63 -117q41 -55 93 -97q49 -40 112 -71h383v848h-193q-90 0 -180 -29
q-87 -28 -155 -82q-65 -52 -106 -132q-40 -79 -40 -179zM655 1323q-44 0 -77 33t-33 78q0 44 33 77t77 33q45 0 78 -33t33 -77q0 -45 -33 -78t-78 -33zM1022 1323q-45 0 -78 33t-33 78q0 44 33 77t78 33t78 -33t33 -77q0 -45 -33 -78t-78 -33z" />
    <glyph glyph-name="uniFED8" unicode="&#x642;" horiz-adv-x="1363" arabic-form="medial" 
d="M-27 119h430q-45 29 -71 55q-25 25 -62 84q-35 56 -57 130q-20 67 -20 157q0 126 46 230q47 105 135 180q89 76 215 116q128 41 288 41h280v-993h275v-146h-1459v146zM338 545q0 -79 23 -141q24 -64 63 -117q41 -55 93 -97q49 -40 112 -71h383v848h-193q-90 0 -180 -29
q-87 -28 -155 -82q-65 -52 -106 -132q-40 -79 -40 -179zM655 1323q-44 0 -77 33t-33 78q0 44 33 77t77 33q45 0 78 -33t33 -77q0 -45 -33 -78t-78 -33zM1022 1323q-45 0 -78 33t-33 78q0 44 33 77t78 33t78 -33t33 -77q0 -45 -33 -78t-78 -33z" />
    <glyph glyph-name="uniFEDA" unicode="&#x643;" horiz-adv-x="1712" arabic-form="final" 
d="M723 -27q-82 0 -152 8t-119 23q-54 17 -100 41q-43 23 -90 59q-81 61 -118 158q-38 100 -38 191v456h146v-436q0 -103 29 -166q29 -61 84 -102q58 -44 135 -65q78 -21 166 -21h694v1569h145v-1569h275v-146h-1057zM614 782q0 128 61 201q60 72 183 72h141v-146h-127
q-66 0 -88 -23t-22 -73v-55h303v-146h-451v170z" />
    <glyph glyph-name="uniFEDB" unicode="&#x643;" horiz-adv-x="1558" arabic-form="initial" 
d="M-27 119h1334v416q0 73 -15 124q-16 55 -47 94q-33 42 -87 66q-56 25 -107 25h-867q-35 34 -48 55t-25 66l364 725h162l-348 -701h749q104 0 180 -35q74 -34 138 -104q52 -61 74 -136t22 -155v-586h-1479v146z" />
    <glyph glyph-name="uniFEDC" unicode="&#x643;" horiz-adv-x="1658" arabic-form="medial" 
d="M-27 119h1334v416q0 73 -15 124q-16 55 -47 94q-33 42 -87 66q-56 25 -107 25h-867q-35 34 -48 55t-25 66l364 725h162l-348 -701h749q104 0 180 -35q74 -34 138 -104q52 -61 74 -136t22 -155v-440h274v-146h-1753v146z" />
    <glyph glyph-name="uniFEDE" unicode="&#x644;" horiz-adv-x="1347" arabic-form="final" 
d="M723 -283q-82 0 -152 8t-119 23q-54 17 -100 41q-43 23 -90 59q-81 61 -118 158q-38 100 -38 191v776h146v-756q0 -103 29 -166q29 -61 84 -102q58 -44 135 -65q78 -21 166 -21h284v1825h348v-146h-202v-1423h319v-146h-319v-256h-373z" />
    <glyph glyph-name="uniFEDF" unicode="&#x644;" horiz-adv-x="665" arabic-form="initial" 
d="M-27 119h320v1569h348v-146h-203v-1569h-465v146z" />
    <glyph glyph-name="uniFEE0" unicode="&#x644;" horiz-adv-x="649" arabic-form="medial" 
d="M-27 119h279v1569h145v-1569h320v-146h-744v146z" />
    <glyph glyph-name="uniFEE2" unicode="&#x645;" horiz-adv-x="1867" arabic-form="final" 
d="M1128 -244q-124 0 -226 43q-104 44 -182 119q-79 76 -127 178t-54 193q-70 -2 -137 -32q-66 -30 -105 -81q-44 -58 -65 -135q-21 -78 -21 -166v-352h-145v295q0 172 31 278q31 108 100 187q66 77 160 113q94 37 182 38q6 93 54 196q47 101 128 179q79 77 183 120
q105 44 224 44q133 0 245 -47t194 -129q81 -81 128 -193q46 -110 46 -242q0 -152 -47 -243h241v-146h-329q-76 -96 -201 -156q-127 -61 -277 -61zM1128 -98q100 0 187 35q85 34 147 95q63 61 98 145q35 83 35 186q0 102 -34 186q-34 85 -98 147q-65 64 -148 97
q-84 34 -187 34q-101 0 -180 -36t-141 -101q-58 -61 -93 -148q-34 -84 -34 -179q0 -94 34 -178t94 -147q58 -61 142 -99q81 -37 178 -37z" />
    <glyph glyph-name="uniFEE3" unicode="&#x645;" horiz-adv-x="1390" arabic-form="initial" 
d="M-27 119h211q-65 103 -65 287q0 125 46 235q47 113 125 195q80 84 187 132q108 48 236 48q132 0 244 -47t194 -129q81 -81 128 -193q46 -110 46 -241q0 -132 -47 -243q-46 -108 -130 -192q-81 -81 -194 -127q-111 -45 -241 -45q-133 0 -241 49q-110 50 -181 125h-318v146
zM713 -55q99 0 186 35q86 35 148 95q61 60 97 145q36 86 36 186q0 99 -35 186q-35 86 -97 147q-64 63 -149 97q-84 34 -186 34t-181 -36t-141 -101q-58 -61 -93 -148q-34 -84 -34 -179q0 -94 34 -178t94 -147q57 -60 143 -99q81 -37 178 -37z" />
    <glyph glyph-name="uniFEE4" unicode="&#x645;" horiz-adv-x="1413" arabic-form="medial" 
d="M-27 119h211q-65 103 -65 287q0 125 46 235q47 113 125 195q80 84 187 132q108 48 236 48q132 0 244 -47t194 -129q81 -81 128 -193q46 -110 46 -241q0 -91 -25 -177q-23 -78 -43 -110h224v-146h-330q-78 -79 -189 -126q-114 -48 -249 -48q-133 0 -241 49
q-110 50 -181 125h-318v146zM713 -55q99 0 186 35q86 35 148 95q61 60 97 145q36 86 36 186q0 99 -35 186q-35 86 -97 147q-64 63 -149 97q-84 34 -186 34t-181 -36t-141 -101q-58 -61 -93 -148q-34 -84 -34 -179q0 -94 34 -178t94 -147q57 -60 143 -99q81 -37 178 -37z" />
    <glyph glyph-name="uniFEE6" unicode="&#x646;" horiz-adv-x="1302" arabic-form="final" 
d="M723 -283q-82 0 -152 8t-119 23q-54 17 -100 41q-43 23 -90 59q-81 61 -118 158q-38 100 -38 191v776h146v-756q0 -103 29 -166q29 -61 84 -102q58 -44 135 -65q78 -21 166 -21h284v1110h146v-854h274v-146h-274v-256h-373zM614 1202q-44 0 -77 33t-33 78t33 78
q32 32 77 32q46 0 78 -32q33 -33 33 -78t-33 -78t-78 -33z" />
    <glyph glyph-name="uniFEE7" unicode="&#x646;" horiz-adv-x="536" arabic-form="initial" 
d="M-27 119h258v993h146v-1139h-404v146zM299 1323q-45 0 -78 33t-33 78q0 44 33 77t78 33t78 -33t33 -77q0 -45 -33 -78t-78 -33z" />
    <glyph glyph-name="uniFEE8" unicode="&#x646;" horiz-adv-x="583" arabic-form="medial" 
d="M-27 119h258v993h146v-993h274v-146h-678v146zM297 1323q-45 0 -78 33t-33 78q0 44 33 77t78 33t78 -33t33 -77q0 -45 -33 -78t-78 -33z" />
    <glyph glyph-name="uniFEE9" unicode="&#x647;" horiz-adv-x="1167" arabic-form="isolated" 
d="M799 -27q-132 0 -258 32t-222 101q-93 67 -154 179q-59 109 -59 258q0 118 49 225q47 104 140 181q91 77 219 120q126 43 285 43h96v102h145v-1241h-241zM895 119v848h-154q-91 0 -181 -32q-88 -31 -158 -86q-69 -54 -109 -133q-41 -80 -41 -173q0 -98 38 -179
q39 -82 103 -133q67 -53 156 -83q87 -29 192 -29h154z" />
    <glyph glyph-name="uniFEEA" unicode="&#x647;" horiz-adv-x="1247" arabic-form="final" 
d="M1315 119v-146h-516q-132 0 -258 32t-222 101q-93 67 -154 179q-59 109 -59 258q0 118 49 225q47 104 140 181q91 77 219 120q126 43 285 43h96v102h145v-1095h275zM895 119v848h-154q-91 0 -181 -32q-88 -31 -158 -86q-69 -54 -109 -133q-41 -80 -41 -173q0 -98 38 -179
q39 -82 103 -133q67 -53 156 -83q87 -29 192 -29h154z" />
    <glyph glyph-name="uniFEEB" unicode="&#x647;" horiz-adv-x="1568" arabic-form="initial" 
d="M-68 119h297q-4 9 -16 85q-12 75 -12 148q0 118 28 214q28 97 86 167t139 109t185 39q105 0 184 -39q77 -38 136 -109q57 -69 84 -167q28 -101 28 -214q0 -77 -10 -147q-11 -79 -14 -86h258q11 51 22 141q10 80 10 158q0 139 -17 235q-19 105 -67 205q-70 148 -217 231
q-146 82 -366 82q-128 0 -233 -39q-111 -41 -220 -100l-61 133q155 80 278 116q129 38 285 38q112 0 217 -31q99 -29 186 -82q84 -51 149 -119t103 -143q60 -114 84 -242q25 -133 25 -258q0 -118 -18 -232q-19 -123 -46 -239h-1487v146zM346 352q0 -78 10 -144t15 -89h530
q1 5 14 88q11 71 11 145q0 79 -19 153q-18 72 -55 122q-39 53 -89 80q-52 28 -124 28q-74 0 -128 -27q-52 -26 -91 -79q-37 -50 -55 -122q-19 -74 -19 -155z" />
    <glyph glyph-name="uniFEEC" unicode="&#x647;" horiz-adv-x="1646" arabic-form="medial" 
d="M-68 119h297q-4 9 -16 85q-12 75 -12 148q0 118 28 214q28 97 86 167t139 109t185 39q105 0 184 -39q77 -38 136 -109q57 -69 84 -167q28 -101 28 -214q0 -77 -10 -147q-11 -79 -14 -86h258q11 51 22 141q10 80 10 158q0 139 -17 235q-19 105 -67 205q-70 148 -217 231
q-146 82 -366 82q-128 0 -233 -39q-111 -41 -220 -100l-61 133q155 80 278 116q129 38 285 38q112 0 217 -31q99 -29 186 -82q84 -51 149 -119t103 -143q60 -114 84 -242q25 -133 25 -258q0 -94 -12 -183q-16 -115 -21 -142h264v-146h-1782v146zM346 352q0 -78 10 -144
t15 -89h530q1 5 14 88q11 71 11 145q0 79 -19 153q-18 72 -55 122q-39 53 -89 80q-52 28 -124 28q-74 0 -128 -27q-52 -26 -91 -79q-37 -50 -55 -122q-19 -74 -19 -155z" />
    <glyph glyph-name="uniFEEE" unicode="&#x648;" horiz-adv-x="1300" arabic-form="final" 
d="M614 -477q-101 0 -179 28q-71 26 -183 91l67 129q104 -57 162 -78q69 -25 142 -25q131 0 207 62q75 62 75 172v71h-96q-133 0 -258 30q-126 30 -224 97q-100 68 -160 178q-61 111 -61 265q0 124 50 230q49 104 141 181q91 76 221 117q131 41 291 41h242v-993h317v-146
h-317v-71q0 -176 -120 -278q-119 -101 -317 -101zM252 543q0 -107 39 -186t107 -131q70 -54 160 -80q91 -27 194 -27h153v848h-153q-90 0 -183 -31q-88 -29 -160 -86q-71 -56 -114 -132t-43 -175z" />
    <glyph glyph-name="uniFEF0" unicode="&#x649;" horiz-adv-x="2101" arabic-form="final" 
d="M1749 967h-211q-74 0 -125 -15q-53 -16 -93 -47q-44 -34 -67 -87q-24 -54 -24 -107v-994h-506q-82 0 -152 8t-119 23q-54 17 -100 41q-43 23 -90 59q-81 61 -118 158q-38 100 -38 191v546h146v-526q0 -103 29 -166q29 -61 84 -102q58 -44 135 -65q78 -21 166 -21h417v835
q0 104 35 180q33 73 105 138q61 52 136 74t154 22h381v-993h275v-146h-420v994z" />
    <glyph glyph-name="uniFEF2" unicode="&#x64a;" horiz-adv-x="1943" arabic-form="final" 
d="M1591 967h-211q-74 0 -125 -15q-53 -16 -93 -47q-42 -33 -66 -87q-25 -56 -25 -107v-994h-588q-73 0 -140 8t-116 22q-53 15 -102 36q-51 22 -121 61l72 125q107 -62 184 -84q76 -22 166 -22h500v835q0 104 35 180q34 74 104 138q61 52 136 74t155 22h381v-993h274v-146
h-420v994zM569 428q-44 0 -77 33t-33 78q0 44 33 77t77 33q45 0 78 -33t33 -77q0 -45 -33 -78t-78 -33zM569 66q-45 0 -77 32q-33 33 -33 78t33 78t77 33q45 0 78 -33t33 -78t-33 -78q-32 -32 -78 -32z" />
    <glyph glyph-name="uniFEF3" unicode="&#x64a;" horiz-adv-x="727" arabic-form="initial" 
d="M-27 119h463v993h146v-1139h-609v146zM123 -451q-45 0 -78 33t-33 78t33 78t78 33t78 -33q32 -32 32 -78t-32 -78q-33 -33 -78 -33zM489 -451q-44 0 -77 33t-33 78t33 78t77 33q45 0 78 -33t33 -78t-33 -78t-78 -33z" />
    <glyph glyph-name="uniFEF4" unicode="&#x64a;" horiz-adv-x="952" arabic-form="medial" 
d="M-27 119h463v993h146v-993h438v-146h-1047v146zM674 -451q-45 0 -78 33t-33 78t33 78t78 33t78 -33q32 -32 32 -78t-32 -78q-33 -33 -78 -33zM307 -451q-45 0 -78 33q-32 32 -32 78t32 78q33 33 78 33t78 -33t33 -78t-33 -78t-78 -33z" />
    <glyph glyph-name=".notdef" horiz-adv-x="1024" 
 />
    <glyph glyph-name=".null" horiz-adv-x="1024" 
 />
    <glyph glyph-name=".null" horiz-adv-x="1024" 
 />
    <glyph glyph-name="nonmarkingreturn" horiz-adv-x="1024" 
 />
    <glyph glyph-name="space" unicode=" " horiz-adv-x="675" 
 />
    <glyph glyph-name="space" unicode="&#xa0;" horiz-adv-x="675" 
 />
    <glyph glyph-name="exclam" unicode="!" horiz-adv-x="540" 
d="M270 -47q-44 0 -77 33t-33 77q0 45 33 78t77 33q45 0 78 -33t33 -78q0 -44 -33 -77t-78 -33zM197 1688h145v-1285h-145v1285z" />
    <glyph glyph-name="quotedbl" unicode="&#x22;" horiz-adv-x="800" 
d="M135 1688h162l-31 -611h-98zM504 1688h162l-31 -611h-98z" />
    <glyph glyph-name="numbersign" unicode="#" horiz-adv-x="1619" 
d="M510 1210l68 478h143l-68 -478h420l68 478h141l-65 -478h352l-23 -141h-350l-59 -436h350l-23 -144h-348l-72 -516h-145l72 516h-420l-72 -516h-143l72 516h-359l27 144h352l61 436h-360l29 141h352zM571 633h420l62 436h-420z" />
    <glyph glyph-name="dollar" unicode="$" horiz-adv-x="1419" 
d="M641 -47q-128 5 -264 44q-141 41 -271 120l80 131q115 -71 239 -112q120 -40 257 -40q209 0 327 85q117 84 117 245q0 76 -26 129q-26 54 -78 98q-50 42 -126 76q-78 34 -167 62l-123 36q-225 67 -333 186q-107 117 -107 281q0 106 43 183q44 79 114 128q71 50 160 75
q94 27 158 28v236h145v-238q110 -7 235 -46q122 -38 245 -114l-78 -129q-120 75 -239 112q-123 38 -259 38q-73 0 -144 -17q-69 -16 -117 -48q-49 -32 -77 -81t-28 -114q0 -129 83 -206q84 -78 250 -130l136 -41q87 -27 175 -66q88 -40 156 -97q72 -61 114 -139
q44 -82 44 -190q0 -219 -137 -342q-135 -122 -359 -137v-231h-145v225z" />
    <glyph glyph-name="percent" unicode="%" horiz-adv-x="2011" 
d="M322 -27l1198 1715h170l-1198 -1715h-170zM1507 -47q-101 0 -178 39q-76 39 -124 108q-46 66 -71 164q-24 94 -24 209t24 208q25 97 71 163q49 70 124 107q78 38 178 38q98 0 176 -38q76 -37 125 -106q49 -68 73 -163q24 -94 24 -209t-24 -210q-24 -96 -73 -164
t-125 -107q-77 -39 -176 -39zM1507 92q116 0 183 91t67 290q0 200 -67 289q-68 90 -183 90t-182 -90q-68 -91 -68 -289q0 -199 69 -290t181 -91zM504 674q-102 0 -178 39t-124 108t-72 164t-24 209q0 115 24 208q24 95 72 163q49 70 124 107q78 38 178 38q98 0 176 -38
q76 -37 125 -106q49 -68 73 -163q23 -91 23 -209q0 -119 -23 -210q-24 -96 -73 -164t-125 -107t-176 -39zM504 813q115 0 182 91q68 92 68 290t-68 289q-68 90 -182 90q-115 0 -182 -90q-68 -91 -68 -289t69 -290q69 -91 181 -91z" />
    <glyph glyph-name="ampersand" unicode="&#x26;" horiz-adv-x="1718" 
d="M641 -47q-123 0 -231 38q-107 38 -184 104q-75 65 -118 161q-42 94 -42 207q0 199 129 323q130 125 331 185q-73 81 -134 176q-64 100 -64 215q0 82 34 147q35 66 95 110q62 45 140 68t175 23q88 0 161 -20q78 -22 137 -64q60 -43 96 -113q36 -69 36 -161
q0 -171 -122 -279q-125 -111 -287 -162l446 -456q47 75 86 188q40 115 61 264h152q-26 -180 -77 -323q-48 -135 -118 -238l367 -373h-203l-254 258q-95 -115 -255 -197q-159 -81 -357 -81zM645 96q167 0 298 69q132 70 210 167l-522 530q-193 -51 -301 -147
q-109 -97 -109 -250q0 -86 33 -155q32 -67 88 -114q55 -46 133 -73t170 -27zM483 1366q0 -46 20 -94q20 -49 49 -93q28 -43 69 -89l67 -72q78 23 148 55q71 33 119 73q50 42 73 90q25 52 25 114q0 52 -21 93t-57 67q-38 27 -89 42q-52 15 -114 15q-58 0 -115 -13
q-54 -12 -91 -36q-36 -23 -60 -63q-23 -38 -23 -89z" />
    <glyph glyph-name="quotesingle" unicode="'" horiz-adv-x="432" 
d="M135 1688h162l-31 -611h-98z" />
    <glyph glyph-name="parenleft" unicode="(" horiz-adv-x="561" 
d="M127 606q0 158 25 320q24 157 66 293q41 134 92 254q45 107 114 215h151q-68 -121 -126 -251q-55 -122 -90 -245q-36 -126 -61 -278q-24 -147 -24 -308t24 -308q25 -152 61 -278q35 -123 90 -245q60 -135 126 -252h-151q-69 108 -114 215q-51 120 -92 254
q-42 136 -66 293q-25 162 -25 321z" />
    <glyph glyph-name="parenright" unicode=")" horiz-adv-x="561" 
d="M434 604q0 -166 -24 -320q-23 -149 -67 -293q-42 -140 -93 -254q-49 -111 -113 -214h-151q73 130 127 251q53 118 89 244t61 278q24 147 24 308t-24 308q-25 152 -61 278q-38 132 -89 246q-56 126 -127 252h151q64 -103 113 -214q51 -114 93 -254q44 -144 67 -295
q24 -156 24 -321z" />
    <glyph glyph-name="asterisk" unicode="*" horiz-adv-x="845" 
d="M487 1403l293 96l37 -127l-287 -94l177 -242l-107 -78l-178 242l-174 -242l-109 76l174 242l-284 100l37 127l288 -100v285h133v-285z" />
    <glyph glyph-name="plus" unicode="+" horiz-adv-x="1259" 
d="M557 477h-491v141h491v494h145v-494h492v-141h-492v-504h-145v504z" />
    <glyph glyph-name="comma" unicode="," horiz-adv-x="505" 
d="M227 178h162l-201 -545h-122z" />
    <glyph glyph-name="hyphen" unicode="-" horiz-adv-x="753" 
d="M66 618h622v-141h-622v141z" />
    <glyph glyph-name="period" unicode="." horiz-adv-x="495" 
d="M248 -47q-45 0 -78 33t-33 77q0 45 33 78t78 33t78 -33q32 -32 32 -78q0 -45 -32 -77q-33 -33 -78 -33z" />
    <glyph glyph-name="slash" unicode="/" horiz-adv-x="1079" 
d="M1034 1688h152l-1135 -2022h-157z" />
    <glyph glyph-name="zero" unicode="0" horiz-adv-x="1349" 
d="M676 100q182 0 290 140q107 138 107 434q0 295 -108 439t-289 144q-186 0 -290 -143q-105 -144 -105 -440q0 -294 105 -434t290 -140zM676 -43q-139 0 -245 53q-105 52 -173 148q-67 94 -100 226t-33 290t33 289q33 132 100 228t173 151q107 55 245 55t243 -55
q104 -54 171 -151q67 -96 100 -228q33 -130 33 -289q0 -158 -33 -290t-100 -226q-69 -96 -171 -148q-104 -53 -243 -53z" />
    <glyph glyph-name="one" unicode="1" horiz-adv-x="710" 
d="M348 1192l-301 -86v135l447 127v-1395h-146v1219z" />
    <glyph glyph-name="two" unicode="2" horiz-adv-x="1167" 
d="M551 1253q-108 0 -186 -30t-175 -109l-84 125q110 83 216 121q104 37 231 37q89 0 173 -25q77 -23 142 -72q61 -46 99 -119q37 -71 37 -165q0 -114 -53 -226q-55 -116 -151 -228q-99 -116 -243 -237q-148 -125 -262 -210h747v-142h-987v131q192 140 348 271
q153 128 247 232q103 114 150 208q50 100 50 191q0 65 -24 110q-25 47 -64 76q-43 32 -96 46q-56 15 -115 15z" />
    <glyph glyph-name="three" unicode="3" horiz-adv-x="1126" 
d="M479 -43q-128 0 -235 37q-109 38 -219 121l84 125q99 -80 178 -109q85 -31 190 -31q77 0 143 18q69 19 115 51q51 35 77 82q28 50 28 114q0 73 -27 123q-28 51 -76 83q-52 35 -121 49q-72 15 -163 15h-50v141h43q193 0 277 66t84 180q0 53 -23 94q-24 44 -64 72
q-42 30 -100 48q-55 17 -128 17q-107 0 -185 -30q-74 -28 -176 -109l-80 125q107 83 213 121q104 37 232 37q92 0 180 -25q81 -23 147 -72t102 -115q38 -70 38 -153q0 -69 -24 -129t-61 -103q-39 -45 -70 -63q-33 -19 -60 -26q33 -5 73 -26q38 -20 79 -65q43 -47 68 -111
q25 -63 25 -144q0 -99 -42 -177q-42 -79 -112 -129q-69 -50 -163 -76q-93 -26 -197 -26z" />
    <glyph glyph-name="four" unicode="4" horiz-adv-x="1306" 
d="M809 338h-739v119l749 901h135v-881h267v-139h-267v-365h-145v365zM809 477v660l-545 -660h545z" />
    <glyph glyph-name="five" unicode="5" horiz-adv-x="1222" 
d="M563 -43q-128 0 -239 37q-116 39 -226 121l84 125q94 -76 184 -108t195 -32q75 0 144 21q71 22 121 60q52 40 84 98t32 135q0 81 -28 146q-26 62 -74 103q-44 38 -116 60q-66 20 -149 20q-82 0 -175 -21q-92 -21 -232 -81l90 717h780v-141h-661l-47 -369q107 37 256 37
q102 0 194 -27q94 -28 163 -85q72 -60 112 -147q41 -90 41 -212q0 -112 -45 -197q-45 -86 -120 -143t-170 -87t-198 -30z" />
    <glyph glyph-name="six" unicode="6" horiz-adv-x="1261" 
d="M629 -43q-107 0 -200 39q-95 40 -163 105q-69 66 -110 159t-41 201q0 99 36 184q39 91 119 205l367 508h178l-299 -416q16 9 49 16q35 7 80 7q105 0 195 -39q88 -38 158 -108q69 -68 109 -160q40 -90 40 -197q0 -101 -39 -191q-38 -87 -109 -160t-163 -112
q-96 -41 -207 -41zM631 100q76 0 143 29q63 27 115 79q49 49 77 117q27 66 27 140q0 72 -27 138t-76 115q-48 48 -115 77q-65 28 -144 28q-80 0 -145 -28t-114 -77t-76 -115q-28 -68 -28 -138q0 -74 27 -140q28 -69 76 -117q52 -52 115 -79q67 -29 145 -29z" />
    <glyph glyph-name="seven" unicode="7" horiz-adv-x="1087" 
d="M856 1217h-801v141h975v-121l-706 -1264h-172z" />
    <glyph glyph-name="eight" unicode="8" horiz-adv-x="1275" 
d="M637 1397q97 0 184 -26t150 -74t100 -116t37 -149q0 -122 -69 -214q-68 -90 -115 -105q46 -15 69 -30q22 -14 63 -58q39 -42 68 -109q27 -63 27 -149q0 -100 -43 -177t-114 -130q-68 -50 -163 -77q-93 -26 -194 -26q-100 0 -193 26q-94 26 -162 77q-71 53 -114 130
t-43 177q0 86 27 149q28 66 67 109q40 44 62 57q25 15 90 37q-46 15 -74 36t-61 64q-35 46 -52 97q-18 54 -18 116q0 81 37 149q37 69 101 116q66 49 150 74q87 26 183 26zM637 651q-170 0 -264 -73t-94 -207q0 -67 26 -115q27 -49 74 -84t114 -53q70 -19 144 -19t145 19
q68 18 115 53t74 84q26 48 26 115q0 133 -95 207q-94 73 -265 73zM637 1253q-71 0 -128 -16t-100 -47q-40 -29 -66 -72q-24 -40 -24 -96q0 -45 20 -90q19 -44 57 -75q35 -30 99 -52q60 -21 142 -21q81 0 143 21q64 22 100 52q38 31 57 75q19 42 19 90q0 57 -23 96
q-26 43 -66 72q-44 31 -101 47q-58 16 -129 16z" />
    <glyph glyph-name="nine" unicode="9" horiz-adv-x="1261" 
d="M631 1397q106 0 199 -39q92 -39 164 -106q72 -68 112 -159q41 -94 41 -200q0 -96 -38 -183q-36 -81 -118 -204l-366 -533h-179l304 439q-21 -9 -56 -18q-28 -7 -80 -7q-104 0 -194 39t-159 108q-68 68 -107 160t-39 199q0 100 39 190q40 92 108 160q70 70 164 112t205 42
zM631 1253q-80 0 -145 -28q-63 -27 -115 -79q-48 -48 -76 -117q-27 -66 -27 -140q0 -72 27 -138q28 -68 75 -115q49 -49 115 -77q69 -29 146 -29q74 0 143 29q68 29 116 77q49 49 76 115t27 138q0 76 -26 140q-28 69 -76 117q-51 51 -116 79t-144 28z" />
    <glyph glyph-name="colon" unicode=":" horiz-adv-x="495" 
d="M248 -47q-45 0 -78 33t-33 77q0 45 33 78t78 33t78 -33q32 -32 32 -78q0 -45 -32 -77q-33 -33 -78 -33zM248 913q-45 0 -78 33t-33 78t33 78t78 33t78 -33q32 -32 32 -78t-32 -78q-33 -33 -78 -33z" />
    <glyph glyph-name="semicolon" unicode=";" horiz-adv-x="505" 
d="M227 178h162l-201 -545h-122zM297 913q-45 0 -78 33t-33 78t33 78t78 33t78 -33t33 -78t-33 -78t-78 -33z" />
    <glyph glyph-name="less" unicode="&#x3c;" horiz-adv-x="1366" 
d="M1300 1139v-156l-1036 -448l1036 -443v-160l-1234 543v121z" />
    <glyph glyph-name="equal" unicode="=" horiz-adv-x="1218" 
d="M66 844h1087v-142h-1087v142zM66 393h1087v-141h-1087v141z" />
    <glyph glyph-name="greater" unicode="&#x3e;" horiz-adv-x="1366" 
d="M1300 596v-121l-1234 -543v160l1036 443l-1036 448v156z" />
    <glyph glyph-name="question" unicode="?" horiz-adv-x="1128" 
d="M442 -47q-51 0 -86 35q-34 34 -34 86t34 86q35 35 86 35t86 -35t35 -86t-35 -86t-86 -35zM475 1710q120 0 222 -39q104 -40 174 -104q74 -68 112 -156q39 -90 39 -194q0 -123 -44 -217q-42 -90 -117 -157q-73 -65 -167 -104q-96 -40 -170 -47v-385h-151v520h39
q80 0 163 27q81 27 147 77q61 47 104 123q40 71 40 169q0 76 -30 139q-29 61 -83 109q-53 47 -123 71q-73 25 -155 25q-105 0 -187 -27q-84 -27 -194 -90l6 164q105 55 189 76q79 20 186 20z" />
    <glyph glyph-name="at" unicode="@" horiz-adv-x="2007" 
d="M1497 340q-67 0 -116 24q-51 25 -86 64q-36 40 -48 74q-12 33 -12 41q-21 -41 -126 -113t-249 -72q-69 0 -136 25q-63 23 -111 76q-44 49 -72 127q-27 77 -27 178q0 114 38 220q37 103 104 184q64 77 159 127q91 48 203 48q70 0 124 -21q56 -22 92 -55q35 -33 49 -53
q2 -3 5 -8l4 -5v1l15 96h141l-90 -575q-8 -55 -4 -97q5 -49 21 -80q18 -35 47 -52q32 -19 75 -19q48 0 95 29q46 28 82 87t57 145q20 83 20 198q0 157 -53 277q-51 115 -146 196q-91 77 -222 118q-129 40 -283 40q-176 0 -325 -61q-146 -60 -250 -165q-104 -106 -160 -244
q-56 -139 -56 -300q0 -159 49 -290q50 -133 141 -227q94 -97 225 -149q133 -53 296 -53q119 0 235 23q121 24 250 75l53 -129q-138 -59 -277 -85q-141 -26 -261 -26q-196 0 -355 65q-158 65 -270 180t-174 274t-62 344q0 188 70 354q68 162 196 288q125 123 298 194
q174 71 379 71q182 0 340 -50q155 -49 270 -149q117 -101 178 -240q64 -145 64 -325q0 -143 -33 -254t-88 -187q-57 -78 -129 -118q-74 -41 -154 -41zM1014 1202q-74 0 -136 -34q-66 -36 -110 -93q-49 -64 -75 -139q-27 -80 -27 -170q0 -144 60 -207t157 -63q80 0 141 35
q64 36 110 99q44 60 72 143q27 81 27 169q0 260 -219 260z" />
    <glyph glyph-name="A" unicode="A" horiz-adv-x="1560" 
d="M1538 -27h-164l-217 541h-754l-217 -541h-163l688 1715h139zM463 664h635l-318 786z" />
    <glyph glyph-name="B" unicode="B" horiz-adv-x="1550" 
d="M1339 1260q0 -60 -15 -118q-16 -61 -49 -113q-36 -56 -88 -98q-54 -43 -48 -42q17 -5 89 -51q71 -46 119 -111q44 -60 66 -135q21 -72 21 -141q0 -126 -49 -219q-48 -91 -129 -148t-187 -84q-107 -27 -227 -27h-602v1715h508q154 0 265 -33q113 -34 185 -91
q74 -58 108 -138q33 -76 33 -166zM1278 446q0 104 -38 171q-38 66 -101 107q-61 39 -150 55q-91 16 -182 16h-416v-676h445q226 0 334 90t108 237zM1180 1251q0 49 -25 104q-24 52 -74 93q-51 41 -129 68q-77 26 -188 26h-373v-602h373q208 0 312 81t104 230z" />
    <glyph glyph-name="C" unicode="C" horiz-adv-x="1607" 
d="M963 1567q-146 0 -272 -49q-127 -50 -225 -144q-99 -96 -155 -230q-57 -136 -57 -313q0 -175 57 -312q56 -134 155 -230q98 -95 225 -144q126 -49 272 -49q142 0 262 34t237 103l68 -129q-129 -79 -270 -115q-140 -36 -297 -36q-201 0 -362 69q-162 70 -272 187
q-113 120 -172 279q-61 163 -61 343q0 181 61 344q59 159 172 279q110 117 272 187q160 69 362 69q157 0 297 -36q141 -36 270 -115l-68 -129q-117 69 -237 103t-262 34z" />
    <glyph glyph-name="D" unicode="D" horiz-adv-x="1685" 
d="M625 119q195 0 347 50q149 49 252 143q100 91 154 225t54 294q0 165 -60 295q-62 135 -166 224q-108 93 -255 142q-150 50 -326 50h-234v-1423h234zM240 1688h387q203 0 382 -55q173 -53 305 -164q131 -110 203 -269t72 -369q0 -209 -72 -369q-72 -161 -203 -269
q-132 -109 -305 -164q-177 -56 -382 -56h-387v1715z" />
    <glyph glyph-name="E" unicode="E" horiz-adv-x="1366" 
d="M240 1688h999v-146h-848v-602h768v-149h-768v-672h858v-146h-1009v1715z" />
    <glyph glyph-name="F" unicode="F" horiz-adv-x="1257" 
d="M240 -27v1715h983v-146h-832v-602h746v-149h-746v-818h-151z" />
    <glyph glyph-name="G" unicode="G" horiz-adv-x="1796" 
d="M963 -47q-201 0 -362 69q-162 70 -272 187q-113 120 -172 279q-61 163 -61 343q0 181 61 344q59 159 172 279q110 117 272 187q160 69 362 69q157 0 297 -36q141 -36 270 -115l-68 -129q-117 69 -237 103t-262 34q-146 0 -272 -49q-127 -50 -225 -144q-99 -96 -155 -230
q-57 -136 -57 -313q0 -175 57 -312q56 -134 155 -230q98 -95 225 -144q126 -49 272 -49q113 0 239 28q120 27 203 66v467h-496v150h647v-703q-121 -75 -277 -113q-157 -38 -316 -38z" />
    <glyph glyph-name="H" unicode="H" horiz-adv-x="1777" 
d="M240 -27v1715h151v-748h995v748h152v-1715h-152v818h-995v-818h-151z" />
    <glyph glyph-name="I" unicode="I" horiz-adv-x="630" 
d="M240 -27v1715h151v-1715h-151z" />
    <glyph glyph-name="J" unicode="J" horiz-adv-x="829" 
d="M-10 170q65 -36 128 -56q59 -18 130 -18q94 0 152 57q59 57 59 189v1346h151v-1330q0 -113 -28 -190q-28 -76 -79 -127q-49 -49 -116 -69q-64 -19 -139 -19q-92 0 -164 19q-71 19 -160 61z" />
    <glyph glyph-name="K" unicode="K" horiz-adv-x="1449" 
d="M240 -27v1715h151v-791l780 791h205l-837 -857l917 -858h-217l-848 789v-789h-151z" />
    <glyph glyph-name="L" unicode="L" horiz-adv-x="1275" 
d="M393 119h848v-146h-1001v1715h153v-1569z" />
    <glyph glyph-name="M" unicode="M" horiz-adv-x="2150" 
d="M1006 -27l-615 1465v-1465h-151v1715h211l624 -1506l625 1506h211v-1715h-152v1465l-614 -1465h-139z" />
    <glyph glyph-name="N" unicode="N" horiz-adv-x="1767" 
d="M393 1479v-1506h-153v1715h200l934 -1506v1506h154v-1715h-201z" />
    <glyph glyph-name="O" unicode="O" horiz-adv-x="1929" 
d="M96 831q0 189 67 352q65 159 183 278q116 118 276 184q157 65 343 65t343 -65q158 -66 275 -184q118 -119 183 -278q67 -163 67 -352q0 -188 -67 -351q-65 -159 -183 -278q-117 -118 -275 -184q-157 -65 -343 -65t-343 65q-160 66 -276 184q-118 119 -183 278
q-67 163 -67 351zM254 831q0 -171 57 -307t155 -231q99 -96 226 -146q129 -51 272 -51q142 0 271 51q126 50 226 147q97 94 156 231q58 135 58 306q0 172 -58 307q-59 136 -156 231q-100 97 -226 147q-129 51 -271 51q-143 0 -272 -51q-127 -50 -226 -146q-98 -95 -155 -231
q-57 -137 -57 -308z" />
    <glyph glyph-name="P" unicode="P" horiz-adv-x="1423" 
d="M391 688v-715h-151v1715h551q153 0 267 -39q111 -38 187 -106q75 -67 109 -155q35 -90 35 -188q0 -99 -35 -192q-34 -91 -109 -164q-74 -72 -187 -114q-114 -42 -267 -42h-400zM391 1542v-708h373q222 0 344 88q123 88 123 278q0 75 -25 139q-24 61 -79 107t-144 71
q-88 25 -219 25h-373z" />
    <glyph glyph-name="Q" unicode="Q" horiz-adv-x="1929" 
d="M96 831q0 189 67 352q65 159 183 278q116 118 276 184q157 65 343 65t343 -65q158 -66 275 -184q118 -119 183 -278q67 -163 67 -352q0 -216 -86 -394q-85 -175 -209 -277l299 -312l-104 -106l-318 330q-82 -50 -201 -85q-115 -34 -249 -34q-186 0 -343 65
q-160 66 -276 184q-118 119 -183 278q-67 163 -67 351zM254 832q0 -172 57 -308t155 -231q99 -96 226 -146q129 -51 273 -51q202 0 344 86l-205 213l113 99l217 -226q100 78 171 225q70 146 70 339q0 171 -58 306q-59 136 -156 231q-100 97 -226 147q-129 51 -271 51
q-143 0 -272 -51q-127 -50 -226 -146q-98 -95 -155 -231q-57 -137 -57 -307z" />
    <glyph glyph-name="R" unicode="R" horiz-adv-x="1533" 
d="M391 719v-746h-151v1715h551q157 0 273 -38q111 -36 185 -103q73 -65 105 -152q32 -86 32 -185q0 -76 -17 -145q-19 -76 -66 -139q-50 -66 -134 -116q-87 -51 -178 -67l490 -770h-178l-478 746h-30h-52h-352zM391 1542v-678h371q108 0 201 19q87 18 146 60q59 43 89 108
q31 68 31 161q0 74 -25 138q-23 60 -79 103q-54 42 -144 66q-86 23 -219 23h-371z" />
    <glyph glyph-name="S" unicode="S" horiz-adv-x="1419" 
d="M186 248q115 -71 239 -112q120 -40 257 -40q209 0 327 85q117 84 117 245q0 76 -26 129q-26 54 -78 98q-50 42 -126 76q-78 34 -167 62l-123 36q-225 67 -333 186q-107 117 -107 281q0 109 46 188q47 80 122 130q77 51 169 75q89 23 191 23q155 0 298 -41
q140 -40 274 -123l-78 -129q-120 75 -239 112q-123 38 -259 38q-73 0 -144 -17q-69 -16 -117 -48q-49 -32 -77 -81t-28 -114q0 -129 83 -206q84 -78 250 -130l136 -41q87 -27 175 -66q88 -40 156 -97q72 -61 114 -139q44 -82 44 -190q0 -235 -158 -360t-442 -125
q-152 0 -298 41q-145 41 -278 123z" />
    <glyph glyph-name="T" unicode="T" horiz-adv-x="1437" 
d="M643 1542h-608v146h1368v-146h-608v-1569h-152v1569z" />
    <glyph glyph-name="U" unicode="U" horiz-adv-x="1841" 
d="M922 -47q-201 0 -333 55q-134 56 -217 151q-84 96 -118 220q-35 126 -35 262v1047h150v-1024q0 -284 131 -426t422 -142q288 0 419 141q132 143 132 427v1024h149v-1047q0 -136 -35 -262t-117 -220q-84 -96 -217 -151q-134 -55 -331 -55z" />
    <glyph glyph-name="V" unicode="V" horiz-adv-x="1560" 
d="M43 1688h164l573 -1475l574 1475h164l-668 -1715h-139z" />
    <glyph glyph-name="W" unicode="W" horiz-adv-x="2142" 
d="M1530 299l414 1389h163l-518 -1715h-127l-391 1444l-391 -1444h-127l-518 1715h164l413 -1389l375 1389h168z" />
    <glyph glyph-name="X" unicode="X" horiz-adv-x="1554" 
d="M864 866l662 -893h-187l-567 766l-559 -766h-184l651 891l-608 824h186l514 -699l510 699h184z" />
    <glyph glyph-name="Y" unicode="Y" horiz-adv-x="1470" 
d="M1262 1688h174l-625 -1018v-697h-152v697l-624 1018h174l526 -852z" />
    <glyph glyph-name="Z" unicode="Z" horiz-adv-x="1460" 
d="M178 1688h1161v-132l-1065 -1437h1090v-146h-1288v129l1067 1440h-965v146z" />
    <glyph glyph-name="bracketleft" unicode="[" horiz-adv-x="600" 
d="M199 1688h387v-142h-242v-1882h242v-141h-387v2165z" />
    <glyph glyph-name="backslash" unicode="\" horiz-adv-x="1079" 
d="M1028 -334l-1134 2022h151l1141 -2022h-158z" />
    <glyph glyph-name="bracketright" unicode="]" horiz-adv-x="600" 
d="M401 -477h-387v141h242v1882h-242v142h387v-2165z" />
    <glyph glyph-name="asciicircum" unicode="^" horiz-adv-x="1099" 
d="M1124 733h-163l-412 762l-412 -762h-162l510 955h129z" />
    <glyph glyph-name="underscore" unicode="_" horiz-adv-x="1208" 
d="M66 27h1077v-142h-1077v142z" />
    <glyph glyph-name="grave" unicode="`" horiz-adv-x="434" 
d="M-45 1688h213l305 -349h-160z" />
    <glyph glyph-name="a" unicode="a" horiz-adv-x="1232" 
d="M614 -47q-98 0 -189 18q-88 17 -162 60q-72 41 -115 110q-44 70 -44 170q0 202 158 291q157 88 418 88q50 0 116 -6q68 -6 113 -12v12q0 166 -78 237q-77 70 -239 70q-42 0 -93 -8q-45 -7 -97 -20q-41 -10 -91 -31q-38 -16 -121 -62l7 164q108 56 213 78q107 23 192 23
q227 0 340 -104t113 -329v-665q-104 -43 -215 -64q-106 -20 -226 -20zM909 524q-42 9 -105 15q-82 8 -145 8q-81 0 -150 -10q-70 -10 -129 -35q-55 -23 -88 -69q-32 -44 -32 -118q0 -66 27 -106q29 -43 71 -67q45 -25 110 -36q61 -10 136 -10q84 0 168 15q94 17 137 34v379z
" />
    <glyph glyph-name="b" unicode="b" horiz-adv-x="1292" 
d="M344 125q59 -12 114 -20q63 -9 117 -9q254 0 375 118t121 325q0 105 -30 187t-91 142q-61 59 -154 91q-94 32 -221 32q-45 0 -106 -6q-65 -6 -125 -22v-838zM344 1112q136 23 227 23q159 0 288 -48q123 -46 206 -129q81 -81 122 -190q40 -107 40 -229t-40 -229t-122 -186
q-81 -78 -206 -125q-123 -46 -288 -46q-84 0 -175 14q-99 15 -197 43v1678h145v-576z" />
    <glyph glyph-name="c" unicode="c" horiz-adv-x="1089" 
d="M66 543q0 128 45 236q46 111 122 188q79 81 182 124q105 44 224 44q123 0 219 -26q94 -25 195 -81l-68 -133q-93 55 -165 75q-77 21 -181 21q-91 0 -169 -35q-77 -35 -132 -94q-57 -62 -86 -141q-31 -85 -31 -178t31 -178q29 -81 86 -142q53 -57 132 -93q75 -34 169 -34
q101 0 181 22q72 20 165 75l68 -134q-101 -55 -195 -81q-93 -25 -219 -25q-119 0 -224 44q-104 44 -182 123q-77 79 -122 186q-45 108 -45 237z" />
    <glyph glyph-name="d" unicode="d" horiz-adv-x="1292" 
d="M221 539q0 -207 121 -325t375 -118q55 0 118 9q52 7 113 20v838q-60 16 -125 22q-62 6 -106 6q-128 0 -221 -32q-94 -32 -154 -91q-61 -60 -91 -142t-30 -187zM948 1688h146v-1678q-97 -27 -198 -43q-91 -14 -175 -14q-165 0 -288 46q-125 47 -206 125q-82 79 -122 186
q-39 104 -39 229t39 229q41 109 122 190q83 83 206 129q129 48 288 48q91 0 227 -23v576z" />
    <glyph glyph-name="e" unicode="e" horiz-adv-x="1257" 
d="M643 96q127 0 222 29q96 29 186 84l69 -133q-109 -63 -214 -92q-112 -31 -263 -31q-124 0 -229 45q-106 45 -183 124q-78 80 -121 186q-44 109 -44 235q0 130 45 238q46 110 123 187q80 80 184 123q106 44 225 44q123 0 223 -42q102 -43 173 -121q74 -82 114 -191
q42 -114 43 -275h-975q1 -64 33 -149q30 -81 87 -138t133 -90t169 -33zM643 991q-92 0 -163 -28q-72 -28 -124 -79q-51 -49 -84 -119q-34 -71 -41 -118h799q-6 56 -38 126q-30 66 -82 118q-50 49 -117 75q-66 25 -150 25z" />
    <glyph glyph-name="f" unicode="f" horiz-adv-x="880" 
d="M35 1112h241v176q0 215 112 307q113 93 304 93h215v-142h-229q-77 0 -123 -14q-50 -15 -78 -46q-29 -32 -42 -88q-13 -55 -13 -147v-139h471v-141h-471v-998h-146v998h-241v141z" />
    <glyph glyph-name="g" unicode="g" horiz-adv-x="1292" 
d="M948 963q-45 9 -113 19q-63 9 -118 9q-254 0 -375 -118t-121 -324q0 -105 30 -188q30 -82 91 -142q60 -59 154 -91q93 -32 221 -32q45 0 106 6q59 6 125 23v838zM66 549q0 124 39 228q41 109 122 187t206 125q123 46 288 46q78 0 175 -15q101 -16 198 -43v-1134
q0 -226 -133 -329t-357 -103q-42 0 -97 5q-51 5 -100 15t-99 26q-42 13 -99 40l-27 180q91 -48 128 -64q44 -18 93 -30q66 -16 98 -21q51 -8 93 -8q164 0 259 72t95 235v14q-131 -22 -227 -22q-162 0 -288 47q-123 46 -206 129q-81 81 -122 190q-39 104 -39 230z" />
    <glyph glyph-name="h" unicode="h" horiz-adv-x="1325" 
d="M344 1106q55 9 153 19q102 10 171 10q104 0 193 -21q91 -22 154 -76t98 -148q34 -92 34 -235v-682h-146v621q0 129 -23 202q-24 76 -66 118t-105 60q-60 17 -148 17q-147 0 -315 -33v-985h-145v1715h145v-582z" />
    <glyph glyph-name="i" unicode="i" horiz-adv-x="542" 
d="M199 1112h145v-1139h-145v1139zM272 1585q45 0 78 -33t33 -77q0 -45 -33 -78t-78 -33q-44 0 -77 33t-33 78q0 44 33 77t77 33z" />
    <glyph glyph-name="j" unicode="j" horiz-adv-x="550" 
d="M53 -492l-48 3q-15 1 -64 10l-31 147q44 -12 87 -18q28 -4 46 -4q60 0 89 14q32 15 48 47q17 34 23 91q6 58 6 143v1171h145v-1171q0 -96 -12 -174q-12 -80 -46 -137q-35 -60 -93 -90q-61 -32 -150 -32zM274 1585q45 0 78 -33t33 -77q0 -45 -33 -78t-78 -33q-44 0 -77 33
t-33 78q0 44 33 77t77 33z" />
    <glyph glyph-name="k" unicode="k" horiz-adv-x="1095" 
d="M199 -27v1715h145v-1084l543 508h209l-611 -563l662 -576h-219l-584 508v-508h-145z" />
    <glyph glyph-name="l" unicode="l" horiz-adv-x="542" 
d="M199 -27v1715h145v-1715h-145z" />
    <glyph glyph-name="m" unicode="m" horiz-adv-x="1976" 
d="M1653 598q0 126 -21 202q-22 79 -58 118q-38 40 -99 57q-60 16 -146 16q-29 0 -74 -5q-41 -5 -83 -15q-35 -9 -85 -26q-42 -14 -55 -21q15 -33 30 -104q15 -70 15 -165v-682h-145v625q0 124 -21 201t-60 117q-41 43 -101 59t-148 16q-77 0 -134 -10q-72 -13 -124 -25
v-983h-145v1102l233 43q93 17 180 17q106 0 192 -21q85 -21 134 -67q75 36 192 62q115 26 207 26q107 0 192 -21q86 -21 145 -77q61 -58 92 -148q32 -93 32 -234v-682h-145v625z" />
    <glyph glyph-name="n" unicode="n" horiz-adv-x="1325" 
d="M199 1081q132 26 254 40q118 14 215 14q104 0 193 -21q91 -22 154 -76t98 -148q34 -92 34 -235v-682h-146v621q0 129 -23 202q-24 76 -66 118t-105 60q-60 17 -148 17q-147 0 -315 -33v-985h-145v1108z" />
    <glyph glyph-name="o" unicode="o" horiz-adv-x="1286" 
d="M643 -47q-124 0 -228 46q-108 48 -184 127q-77 80 -121 187q-44 108 -44 230q0 121 44 229q44 107 121 187q78 81 184 128q108 48 228 48t228 -48q106 -47 184 -128q79 -82 122 -187q44 -108 44 -229q0 -122 -44 -230q-43 -105 -122 -187q-76 -79 -184 -127
q-104 -46 -228 -46zM643 96q94 0 172 36q77 36 133 96t86 142q31 84 31 173t-31 174q-29 81 -86 142q-56 60 -133 96q-78 36 -172 36t-172 -36q-77 -36 -133 -96q-57 -61 -86 -142q-31 -85 -31 -174t31 -173q30 -82 86 -142t133 -96q78 -36 172 -36z" />
    <glyph glyph-name="p" unicode="p" horiz-adv-x="1292" 
d="M344 125q66 -17 125 -23q61 -6 106 -6q127 0 221 32q93 32 154 91q61 60 91 142t30 188q0 206 -121 324t-375 118q-54 0 -117 -9q-71 -10 -114 -19v-838zM344 -477h-145v1554q98 28 197 43q97 15 175 15q165 0 288 -46q125 -47 206 -125t122 -187q40 -107 40 -228
q0 -123 -40 -230q-41 -109 -122 -190q-83 -83 -206 -129q-126 -47 -288 -47q-96 0 -227 22v-452z" />
    <glyph glyph-name="q" unicode="q" horiz-adv-x="1292" 
d="M221 549q0 -105 30 -188q30 -82 91 -142q60 -59 154 -91q93 -32 221 -32q45 0 106 6q59 6 125 23v838q-45 9 -113 19q-63 9 -118 9q-254 0 -375 -118t-121 -324zM948 -25q-131 -22 -227 -22q-162 0 -288 47q-123 46 -206 129q-81 81 -122 190q-39 104 -39 230
q0 124 39 228q41 109 122 187t206 125q123 46 288 46q78 0 175 -15q101 -16 198 -43v-1554h-146v452z" />
    <glyph glyph-name="r" unicode="r" horiz-adv-x="786" 
d="M772 971h-188q-64 0 -138 -12q-81 -13 -102 -21v-965h-145v1082q75 20 178 40q86 17 186 17h209v-141z" />
    <glyph glyph-name="s" unicode="s" horiz-adv-x="1169" 
d="M549 96q68 0 128 9q59 9 104 29q46 20 69 54q24 34 24 91q0 78 -61 124q-64 49 -205 78l-86 19q-104 24 -178 54t-121 71q-45 39 -67 94q-21 54 -21 119q0 64 33 120q34 57 89 95q57 39 133 60q80 22 167 22q239 0 442 -109l-65 -133q-103 57 -182 77q-82 21 -195 21
q-131 0 -199 -42q-67 -42 -67 -113q0 -76 57 -115q59 -40 207 -70l76 -16q104 -23 184 -56q75 -31 125 -75q48 -43 70 -101q20 -54 20 -124q0 -80 -35 -142q-35 -61 -99 -102q-66 -41 -153 -62q-84 -20 -194 -20q-121 0 -226 27q-109 28 -217 88l70 139q97 -59 194 -85
q96 -26 179 -26z" />
    <glyph glyph-name="t" unicode="t" horiz-adv-x="1003" 
d="M35 1112h241v412h146v-412h471v-141h-471v-555q0 -93 13 -148q13 -57 42 -90t78 -48t123 -15h229v-142h-215q-88 0 -165 20q-76 20 -132 64q-58 46 -88 119q-31 76 -31 182v613h-241v141z" />
    <glyph glyph-name="u" unicode="u" horiz-adv-x="1294" 
d="M950 1112h146v-1085q-136 -39 -245 -57q-102 -17 -214 -17q-111 0 -192 20q-86 21 -145 76q-61 57 -91 149q-31 96 -31 234v680h146v-618q0 -129 20 -203q21 -79 58 -119q36 -39 99 -58q60 -18 144 -18q73 0 149 10q77 10 156 33v973z" />
    <glyph glyph-name="v" unicode="v" horiz-adv-x="1142" 
d="M504 -27l-484 1139h166l385 -924l385 924h166l-483 -1139h-135z" />
    <glyph glyph-name="w" unicode="w" horiz-adv-x="1769" 
d="M1212 -27l-327 914l-328 -914h-135l-377 1139h164l283 -909l321 909h143l322 -909l283 909h163l-376 -1139h-136z" />
    <glyph glyph-name="x" unicode="x" horiz-adv-x="1153" 
d="M668 557l458 -584h-176l-372 473l-373 -473h-178l460 586l-434 553h176l349 -442l348 442h178z" />
    <glyph glyph-name="y" unicode="y" horiz-adv-x="1294" 
d="M950 -10q-53 -13 -144 -26q-78 -11 -169 -11q-111 0 -192 20q-86 21 -145 76q-61 57 -91 149q-31 96 -31 234v680h146v-618q0 -129 20 -203q21 -79 58 -119q36 -39 99 -58q60 -18 144 -18q73 0 149 10q77 10 156 33v973h146v-1169q0 -226 -133 -329t-357 -103
q-42 0 -97 5q-51 5 -100 15t-99 26q-42 13 -99 40l-27 180q91 -48 128 -64q42 -17 94 -30q68 -16 97 -21q51 -8 93 -8q165 0 259 72q95 72 95 235v29z" />
    <glyph glyph-name="z" unicode="z" horiz-adv-x="1173" 
d="M143 1112h893v-125l-733 -872h744v-142h-941v125l732 873h-695v141z" />
    <glyph glyph-name="braceleft" unicode="{" horiz-adv-x="643" 
d="M537 -477q-89 0 -147 15t-93 54q-35 40 -47 98t-12 140v455q0 43 -7 97q-6 48 -19 79q-13 33 -41 51q-29 19 -95 25v139q68 6 95 24t41 52q13 32 19 78q7 54 7 98v452q0 82 12 141q12 57 47 97q35 39 93 54q62 16 147 16h71v-142h-49q-68 0 -100 -7q-36 -8 -50 -25
q-17 -20 -21 -52q-5 -38 -5 -96v-440q0 -85 -10 -141q-10 -58 -33 -100q-22 -42 -56 -65q-34 -24 -71 -34v41q37 -10 71 -34q33 -23 56 -66q23 -42 33 -100q10 -56 10 -140v-443q0 -58 5 -96q4 -32 21 -52q14 -17 50 -25q32 -7 100 -7h49v-141h-71z" />
    <glyph glyph-name="bar" unicode="|" horiz-adv-x="542" 
d="M199 1688h145v-2165h-145v2165z" />
    <glyph glyph-name="braceright" unicode="}" horiz-adv-x="643" 
d="M106 -477h-71v141h49q68 0 100 7q36 8 50 25q17 20 21 52q5 38 5 96v443q0 84 10 140q10 58 33 100q23 43 55 66t72 34v-41q-40 11 -72 34q-33 24 -55 65q-23 42 -33 100q-10 56 -10 141v440q0 58 -5 96q-4 32 -21 52q-14 17 -50 25q-32 7 -100 7h-49v142h71
q85 0 147 -16q59 -15 93 -54q35 -40 47 -97q13 -63 13 -141v-452q0 -52 6 -98t19 -78q14 -35 40 -52q27 -18 96 -24v-139q-67 -6 -96 -25q-26 -18 -40 -51q-13 -31 -19 -79q-6 -46 -6 -97v-455q0 -77 -13 -140q-12 -58 -47 -98q-34 -39 -93 -54t-147 -15z" />
    <glyph glyph-name="asciitilde" unicode="~" horiz-adv-x="1300" 
d="M922 498q68 0 111 37q45 39 61 141h145q-23 -177 -106 -247q-85 -71 -211 -71q-77 0 -149 29q-71 29 -138 63q-51 26 -132 60q-65 27 -126 27q-68 0 -111 -37q-42 -37 -59 -142h-146q22 173 106 246q83 72 210 72q82 0 160 -29q81 -30 142 -62q53 -28 127 -61
q58 -26 116 -26z" />
    <glyph glyph-name="exclamdown" unicode="&#xa1;" horiz-adv-x="540" 
d="M270 1247q45 0 78 -33t33 -77q0 -45 -33 -78t-78 -33q-44 0 -77 33t-33 78q0 44 33 77t77 33zM344 -475h-145v1272h145v-1272z" />
    <glyph glyph-name="cent" unicode="&#xa2;" horiz-adv-x="1089" 
d="M569 -43q-87 6 -183 52q-98 47 -168 124q-72 80 -112 183q-40 104 -40 227q0 121 40 225q39 100 112 183q70 79 168 126q99 47 183 53v189h146v-189q79 -1 163 -26q81 -24 175 -76l-68 -133q-86 50 -145 69q-68 22 -125 23v-889q56 1 125 25q61 21 145 70l68 -134
q-90 -50 -175 -75q-88 -26 -163 -27v-188h-146v188zM221 543q0 -89 28 -170q26 -74 76 -137q48 -60 118 -96q71 -36 126 -42v889q-55 -6 -126 -42t-118 -95q-51 -63 -76 -138q-28 -82 -28 -169z" />
    <glyph glyph-name="sterling" unicode="&#xa3;" horiz-adv-x="1476" 
d="M823 1710q158 0 296 -39q139 -39 270 -119l-68 -129q-119 70 -238 107q-120 37 -262 37q-62 0 -145 -13q-74 -12 -136 -44q-60 -32 -100 -85q-39 -53 -39 -139q0 -47 14 -94q13 -45 36 -90q15 -30 47 -90l49 -78h530v-127h-461q13 -25 35 -87q23 -66 23 -136
q0 -77 -23 -151q-23 -72 -60 -135q-38 -64 -87 -113q-50 -50 -92 -76l-21 41q48 17 103 25q48 7 100 7q68 0 126 -13q62 -14 119 -30q46 -13 119 -29q64 -14 134 -14q117 0 264 56l53 -134q-80 -32 -159 -49q-74 -16 -156 -16q-73 0 -138 13q-68 14 -132 30q-62 16 -128 30
q-61 13 -129 13q-75 0 -168 -19q-84 -17 -194 -65l-55 117q75 39 133 80q64 45 114 104q55 64 89 140q36 80 36 175q0 69 -21 131q-19 57 -46 105h-293v127h217l-29 45q-29 48 -50 95q-20 46 -36 100q-14 48 -14 110q0 116 53 199t135 132q85 51 184 73q100 22 201 22z" />
    <glyph glyph-name="currency" unicode="&#xa4;" horiz-adv-x="1269" 
d="M213 1130l88 -88q69 50 151 80q84 31 183 31t183 -31q82 -30 151 -80l88 88l110 -110l-84 -86q48 -74 74 -150q27 -78 27 -170t-27 -170q-26 -74 -74 -149l84 -86l-110 -111l-88 88q-69 -50 -151 -80q-81 -30 -183 -30t-183 30q-82 30 -151 80l-88 -88l-111 111l84 86
q-46 71 -73 149t-27 170t27 170q28 80 73 150l-84 86zM635 1001q-86 -2 -158 -31q-76 -31 -127 -82q-55 -55 -84 -122q-30 -68 -28 -152q2 -78 33 -147q32 -70 85 -123t126 -85t153 -32q79 0 152 32t126 85q52 50 85 123q33 71 34 147q2 84 -28 152q-29 67 -84 122
q-51 51 -128 82q-74 29 -157 31z" />
    <glyph glyph-name="yen" unicode="&#xa5;" horiz-adv-x="1306" 
d="M109 741h426l-562 947h174l506 -852l506 852h174l-563 -947h426v-141h-467v-207h467v-141h-467v-279h-151v279h-469v141h469v207h-469v141z" />
    <glyph glyph-name="brokenbar" unicode="&#xa6;" horiz-adv-x="542" 
d="M199 1688h145v-873h-145v873zM199 395h145v-872h-145v872z" />
    <glyph glyph-name="section" unicode="&#xa7;" horiz-adv-x="1343" 
d="M209 1397q0 79 39 139t101 97q67 40 141 58q77 19 167 19q124 0 220 -26t194 -80l-67 -134q-93 55 -165 75q-80 22 -182 22q-135 0 -215 -45t-80 -123q0 -68 52 -126q49 -55 174 -122l346 -184q77 -39 139 -82q66 -46 112 -93q49 -50 76 -111q27 -60 27 -136
q0 -75 -26 -136q-28 -65 -70 -113q-47 -53 -99 -89q-56 -38 -79 -49q41 -33 85 -106q42 -70 42 -165q0 -90 -39 -159t-106 -118q-66 -48 -153 -72q-83 -23 -186 -23q-126 0 -219 25t-194 81l67 133q93 -55 165 -75q76 -21 181 -21q70 0 128 13q61 14 105 41q43 27 68 69
t25 96q0 42 -11 74q-13 37 -41 71q-28 33 -85 75q-56 41 -141 87l-287 154q-78 40 -144 84q-65 43 -114 95q-50 53 -77 113q-28 62 -28 138q0 68 28 130q27 60 74 110q48 51 104 87q60 38 77 44q-42 30 -85 96q-44 68 -44 162zM774 313l70 -37l47 -28q98 45 171 117
q71 69 71 165q0 97 -68 170q-67 72 -213 150l-336 176q-13 5 -27 14q-3 2 -6.5 4.5t-5.5 3.5l-2 1q-47 -17 -96 -45q-47 -27 -87 -64t-60 -77q-21 -42 -21 -92q0 -53 14 -89q16 -42 47 -74q33 -34 84 -69q56 -38 123 -70z" />
    <glyph glyph-name="dieresis" unicode="&#xa8;" horiz-adv-x="761" 
d="M104 1585q45 0 78 -33t33 -77q0 -45 -33 -78t-78 -33q-44 0 -77 33t-33 78q0 44 33 77t77 33zM657 1585q45 0 78 -33t33 -77q0 -45 -33 -78t-78 -33q-44 0 -77 33t-33 78q0 44 33 77t77 33z" />
    <glyph glyph-name="copyright" unicode="&#xa9;" horiz-adv-x="1970" 
d="M106 825q0 197 69 360q68 160 189 280q120 118 278 184q157 65 343 65t343 -65q160 -66 279 -184q120 -118 188 -280q69 -163 69 -360q0 -195 -69 -359q-70 -166 -188 -278q-121 -115 -279 -179t-343 -64t-343 64q-156 63 -278 179q-120 114 -189 278t-69 359zM258 825
q0 -165 55 -300t153 -233t231 -152t288 -54q156 0 289 54q131 53 230 152q98 98 153 233t55 300q0 168 -55 303q-56 138 -153 235t-230 151q-136 55 -289 55q-152 0 -288 -55q-134 -54 -231 -151t-153 -235q-55 -135 -55 -303zM516 844q0 107 37 196q39 94 102 157
q65 65 152 103q84 37 186 37q107 0 186 -21q76 -20 167 -71l-64 -125q-80 47 -141 65q-59 17 -148 17q-74 0 -134 -27q-58 -26 -105 -76q-45 -48 -69 -113q-23 -62 -23 -142q0 -81 23 -143q24 -64 69 -112q47 -50 105 -76q62 -28 134 -28q81 0 148 19q64 18 141 67l64 -129
q-84 -47 -167 -69q-79 -21 -186 -21q-102 0 -186 37q-87 38 -152 103q-64 64 -102 154q-37 87 -37 198z" />
    <glyph glyph-name="ordfeminine" unicode="&#xaa;" horiz-adv-x="954" 
d="M662 1257q-38 12 -92 19q-62 8 -91 8q-52 0 -93 -7q-43 -7 -76 -23q-30 -14 -49 -41q-17 -24 -17 -64t15 -64t44 -41q26 -15 71 -23q39 -7 93 -7q40 0 97 9q58 9 98 21v213zM463 887q-71 0 -135 13q-67 14 -117 43q-51 30 -83 80t-32 124q0 134 103 201q100 65 258 65
q58 0 118 -9t87 -15v34q0 48 -17 79q-16 29 -46 47q-29 17 -74 25q-41 7 -97 7q-53 0 -107 -15q-50 -14 -149 -50l14 143q68 30 133 41q68 12 136 12q72 0 135 -15q62 -15 111 -50q48 -35 77 -94q29 -60 29 -138v-459q-90 -33 -177 -51t-167 -18z" />
    <glyph glyph-name="guillemotleft" unicode="&#xab;" horiz-adv-x="1056" 
d="M49 563l383 549h168l-377 -547l377 -551h-166zM479 563l383 549h164l-373 -547l371 -551h-160z" />
    <glyph glyph-name="logicalnot" unicode="&#xac;" horiz-adv-x="1402" 
d="M1059 764h-993v141h1138v-682h-145v541z" />
    <glyph glyph-name="registered" unicode="&#xae;" horiz-adv-x="1970" 
d="M106 825q0 197 69 360q68 160 189 280q120 118 278 184q157 65 343 65t343 -65q160 -66 279 -184q120 -118 188 -280q69 -163 69 -360q0 -195 -69 -359q-70 -166 -188 -278q-121 -115 -279 -179t-343 -64t-343 64q-156 63 -278 179q-120 114 -189 278t-69 359zM258 825
q0 -165 55 -300t153 -233t231 -152t288 -54q156 0 289 54q131 53 230 152q98 98 153 233t55 300q0 168 -55 303q-56 138 -153 235t-230 151q-136 55 -289 55q-152 0 -288 -55q-134 -54 -231 -151t-153 -235q-55 -135 -55 -303zM1069 756h-1q-1 0 -5.5 -0.5t-9.5 -0.5
q-12 -1 -37 -1h-230v-385h-143v962h334q86 0 155 -10q73 -11 130 -42q57 -32 92 -89q35 -58 35 -146q0 -93 -53 -163q-54 -71 -122 -93l211 -419h-163zM1237 1042q0 43 -16 69q-17 28 -47 46q-31 18 -75 26q-41 7 -100 7h-213v-297h226q125 0 175 38t50 111z" />
    <glyph glyph-name="macron" unicode="&#xaf;" horiz-adv-x="649" 
d="M-6 1432v135h661v-135h-661z" />
    <glyph glyph-name="degree" unicode="&#xb0;" horiz-adv-x="837" 
d="M66 1354q0 76 27 139q26 61 75 113q45 48 112 76t138 28q73 0 140 -28q66 -28 113 -76q46 -47 74 -113q27 -63 27 -139t-27 -141t-74 -112q-49 -49 -113 -76q-67 -28 -140 -28q-72 0 -137 28q-63 27 -112 76q-50 50 -76 112q-27 65 -27 141zM215 1354q0 -99 55 -160
t148 -61q91 0 148 61q57 62 57 160q0 97 -57 159t-148 62q-92 0 -148 -62q-55 -61 -55 -159z" />
    <glyph glyph-name="plusminus" unicode="&#xb1;" horiz-adv-x="1259" 
d="M557 563h-491v142h491v407h145v-407h492v-142h-492v-420h-145v420zM66 115h1128v-142h-1128v142z" />
    <glyph glyph-name="uni00B2" unicode="&#xb2;" horiz-adv-x="667" 
d="M338 1567q-52 0 -90 -15q-36 -14 -96 -61l-54 76q67 50 121 69q55 19 119 19q94 0 164 -50q69 -49 69 -151q0 -118 -105 -232q-104 -113 -230 -204h356v-88h-516v78q196 146 303 253q98 98 98 191q0 60 -41 87q-42 28 -98 28z" />
    <glyph glyph-name="uni00B3" unicode="&#xb3;" horiz-adv-x="651" 
d="M309 915q-62 0 -121 19q-51 17 -122 70l53 75q56 -46 97 -61q38 -14 93 -14q73 0 122 31q50 32 50 91q0 70 -48 99q-47 28 -136 28h-37v88h33q93 0 133 31q39 30 39 84q0 45 -41 75q-40 30 -107 30q-53 0 -90 -15q-36 -14 -96 -61l-53 76q67 50 121 69q55 19 118 19
q97 0 170 -50q72 -49 72 -141q0 -76 -40 -116q-41 -41 -46 -42q15 -1 59 -42q43 -40 43 -130q0 -54 -22 -94q-23 -41 -59 -67q-38 -27 -84 -39q-50 -13 -101 -13z" />
    <glyph glyph-name="acute" unicode="&#xb4;" horiz-adv-x="434" 
d="M121 1339h-160l305 349h213z" />
    <glyph glyph-name="mu" unicode="&#xb5;" horiz-adv-x="1392" 
d="M195 -459q13 76 18 170q4 71 4 201v1200h146v-524q0 -116 22 -205q23 -92 66 -155q44 -64 105 -97q64 -35 149 -35q84 0 148 35q63 34 106 97q45 65 67 155q23 94 23 205v524h145v-1139h-145v170q0 -4 -18 -31q-21 -31 -65 -70q-48 -42 -114 -66q-63 -23 -147 -23
q-85 0 -148 23q-65 24 -114 65q-46 39 -68 75q-20 32 -16 16q1 -2 1 -3v-197q0 -119 -5 -216q-4 -80 -17 -175h-143z" />
    <glyph glyph-name="paragraph" unicode="&#xb6;" horiz-adv-x="1198" 
d="M35 1241q0 101 38 185t108 142q72 60 169 89q102 31 219 31h430v-1885h-145v1747h-244v-1747h-145v1004q-59 1 -146 33q-80 29 -145 85q-63 54 -101 134q-38 81 -38 182z" />
    <glyph glyph-name="periodcentered" unicode="&#xb7;" horiz-adv-x="495" 
d="M248 440q-45 0 -78 33t-33 78t33 78t78 33t78 -33q32 -32 32 -78t-32 -78q-33 -33 -78 -33z" />
    <glyph glyph-name="cedilla" unicode="&#xb8;" horiz-adv-x="423" 
d="M27 -315q48 -20 84 -28q31 -7 61 -7q27 0 48 4q25 5 39 13q15 9 25 22q9 12 9 32q0 33 -27 50q-26 16 -65 16q-49 0 -107 -29l-57 62l127 207h131l-78 -133q30 6 32 8l-13 2q84 0 139 -46t55 -130q0 -56 -22 -93t-60 -61q-39 -25 -81 -35q-41 -10 -87 -10q-87 0 -192 37z
" />
    <glyph glyph-name="uni00B9" unicode="&#xb9;" horiz-adv-x="401" 
d="M236 1534l-160 -49v88l250 78v-729h-90v612z" />
    <glyph glyph-name="ordmasculine" unicode="&#xba;" horiz-adv-x="935" 
d="M483 883q-92 0 -167 31q-77 32 -134 87t-90 132t-33 163t33 162q32 75 90 131q56 54 134 88q76 33 167 33t167 -33q78 -34 134 -88q58 -56 90 -131q33 -76 33 -162t-33 -163t-90 -132t-134 -87q-75 -31 -167 -31zM483 1016q66 0 117 21q50 21 87 59q36 38 54 88
q19 54 19 112q0 55 -19 109q-18 52 -54 89q-36 38 -87 60q-52 23 -117 23q-64 0 -115 -23q-50 -22 -87 -60q-38 -38 -56 -89t-18 -109q0 -61 18 -112q17 -49 55 -88q37 -38 87 -59q51 -21 116 -21z" />
    <glyph glyph-name="guillemotright" unicode="&#xbb;" horiz-adv-x="1056" 
d="M623 14h-166l377 551l-377 547h168l383 -549zM193 14h-160l370 551l-372 547h164l383 -549z" />
    <glyph glyph-name="onequarter" unicode="&#xbc;" horiz-adv-x="1904" 
d="M1468 141h-530v43l602 801h51v-721h135v-123h-135v-168h-123v168zM334 1448h-170l55 123h238v-971h-123v848zM1468 264v473h39l-389 -516v43h350zM377 -8l942 1626l113 -64l-943 -1626z" />
    <glyph glyph-name="onehalf" unicode="&#xbd;" horiz-adv-x="1904" 
d="M1432 397l59 64q35 38 56 67q27 36 41 72q16 40 16 72q0 77 -59 124q-58 46 -146 46q-94 0 -150 -47q-55 -46 -55 -156h-125q5 85 17 128q13 46 55 91q48 53 117 79q73 28 141 28q65 0 126 -23q62 -23 105 -62q45 -41 71 -95q25 -53 25 -117q0 -55 -17 -99
q-19 -49 -46 -89q-29 -42 -61 -79q-22 -25 -64 -67l-233 -238h417v-123h-708zM334 1448h-170l55 123h238v-971h-123v848zM287 -8l942 1626l112 -64l-942 -1626z" />
    <glyph glyph-name="threequarters" unicode="&#xbe;" horiz-adv-x="2068" 
d="M483 588q-59 0 -114 18q-56 18 -98 54t-67 85q-26 50 -26 136h119q12 -92 57 -131t127 -39q44 0 80 13q37 13 64 36q27 22 42 54t15 69q0 80 -55 123t-168 43v122q106 0 157 42q52 43 52 116q0 65 -48 102q-47 37 -120 37q-78 0 -117 -33q-41 -35 -47 -126h-123
q15 145 88 213q73 69 201 69q60 0 110 -20q55 -22 94 -55t62 -84t23 -105q0 -78 -46 -144q-45 -65 -57 -69q17 -6 67 -76t50 -151q0 -61 -25 -119q-23 -53 -68 -95q-43 -40 -103 -63q-57 -22 -126 -22zM1632 141h-530v43l602 801h51v-721h135v-123h-135v-168h-123v168z
M1632 264v473h39l-389 -516v43h350zM567 -8l942 1626l113 -64l-942 -1626z" />
    <glyph glyph-name="questiondown" unicode="&#xbf;" horiz-adv-x="1128" 
d="M676 1268q51 0 86 -35t35 -86t-35 -86t-86 -35t-86 35t-35 86t35 86t86 35zM421 -451q-102 39 -174 105q-74 68 -112 156q-39 90 -39 194q0 122 44 216q43 92 117 158q71 63 167 103t170 47v385h151v-520h-38q-85 0 -164 -26q-81 -27 -147 -77q-61 -47 -104 -123
q-40 -71 -40 -169q0 -74 31 -139q30 -63 83 -110q54 -48 122 -71q70 -24 155 -24q105 0 187 27q84 27 194 90l-6 -164q-105 -55 -189 -76q-79 -20 -186 -20q-123 0 -222 38z" />
    <glyph glyph-name="Agrave" unicode="&#xc0;" horiz-adv-x="1560" 
d="M1538 -27h-164l-217 541h-754l-217 -541h-163l688 1715h139zM463 664h635l-318 786zM362 2052h213l306 -348h-160z" />
    <glyph glyph-name="Aacute" unicode="&#xc1;" horiz-adv-x="1560" 
d="M1538 -27h-164l-217 541h-754l-217 -541h-163l688 1715h139zM463 664h635l-318 786zM844 1704h-160l305 348h213z" />
    <glyph glyph-name="Acircumflex" unicode="&#xc2;" horiz-adv-x="1560" 
d="M1538 -27h-164l-217 541h-754l-217 -541h-163l688 1715h139zM463 664h635l-318 786zM1210 1704h-174l-254 207l-260 -207h-174l379 348h109z" />
    <glyph glyph-name="Atilde" unicode="&#xc3;" horiz-adv-x="1560" 
d="M1538 -27h-164l-217 541h-754l-217 -541h-163l688 1715h139zM463 664h635l-318 786zM944 1878q45 0 70 28q24 27 39 107h135q-22 -143 -83 -207q-60 -63 -155 -63q-59 0 -104 23q-48 25 -88 50q-32 20 -76 45q-34 19 -72 19q-44 0 -67 -29q-22 -28 -37 -108h-137
q22 144 86 208q62 62 153 62q62 0 107 -23q47 -24 90 -48l78 -48q28 -16 61 -16z" />
    <glyph glyph-name="Adieresis" unicode="&#xc4;" horiz-adv-x="1560" 
d="M1538 -27h-164l-217 541h-754l-217 -541h-163l688 1715h139zM463 664h635l-318 786zM504 1980q46 0 78 -32t32 -78t-32 -78q-33 -33 -78 -33t-78 33t-33 78t33 78q32 32 78 32zM1057 1980q46 0 78 -32t32 -78t-32 -78q-33 -33 -78 -33t-78 33t-33 78t33 78q32 32 78 32z
" />
    <glyph glyph-name="Aring" unicode="&#xc5;" horiz-adv-x="1560" 
d="M1538 -27h-164l-217 541h-754l-217 -541h-163l688 1715h139zM463 664h635l-318 786zM782 2138q95 0 161 -60q67 -61 67 -157q0 -97 -67 -158q-65 -59 -161 -59q-97 0 -162 59q-67 61 -67 158q0 96 67 157q66 60 162 60zM782 2021q-42 0 -71 -26q-31 -28 -31 -74t31 -74
q29 -26 71 -26t71 26q30 27 30 74t-30 74q-29 26 -71 26z" />
    <glyph glyph-name="AE" unicode="&#xc6;" horiz-adv-x="2168" 
d="M2042 1688v-146h-848v-602h768v-149h-768v-672h858v-146h-1010v541h-575l-346 -541h-170l1104 1715h987zM563 664h479v747z" />
    <glyph glyph-name="Ccedilla" unicode="&#xc7;" horiz-adv-x="1607" 
d="M610 -315q48 -20 84 -28q31 -7 62 -7q27 0 48 4q25 5 39 13t24 22q10 13 10 32q0 33 -27 50q-26 16 -66 16q-48 0 -106 -29l-57 62l98 162q-118 24 -240 103q-124 80 -208 191q-85 111 -130 255q-45 143 -45 300q0 181 61 344q59 159 172 279q110 117 272 187
q160 69 362 69q157 0 297 -36q141 -36 270 -115l-68 -129q-117 69 -237 103t-262 34q-146 0 -272 -49q-127 -50 -225 -144q-99 -96 -155 -230q-57 -136 -57 -313q0 -175 57 -312q56 -134 155 -230q98 -95 225 -144q126 -49 272 -49q142 0 262 34t237 103l68 -129
q-129 -79 -270 -115q-140 -36 -297 -36q-37 0 -72 3q-13 1 -30.5 3t-20.5 2l-39 -67q31 6 31 9q0 1 -13 1q84 0 139 -46q56 -47 56 -130q0 -55 -23 -93t-59 -61q-39 -25 -81 -35q-41 -10 -87 -10q-88 0 -193 37z" />
    <glyph glyph-name="Egrave" unicode="&#xc8;" horiz-adv-x="1366" 
d="M240 1688h999v-146h-848v-602h768v-149h-768v-672h858v-146h-1009v1715zM342 2052h213l305 -348h-160z" />
    <glyph glyph-name="Eacute" unicode="&#xc9;" horiz-adv-x="1366" 
d="M240 1688h999v-146h-848v-602h768v-149h-768v-672h858v-146h-1009v1715zM780 1704h-159l305 348h213z" />
    <glyph glyph-name="Ecircumflex" unicode="&#xca;" horiz-adv-x="1366" 
d="M240 1688h999v-146h-848v-602h768v-149h-768v-672h858v-146h-1009v1715zM1169 1704h-174l-254 207l-260 -207h-174l379 348h109z" />
    <glyph glyph-name="Edieresis" unicode="&#xcb;" horiz-adv-x="1366" 
d="M240 1688h999v-146h-848v-602h768v-149h-768v-672h858v-146h-1009v1715zM467 1980q46 0 78 -32q33 -33 33 -78t-33 -78t-78 -33t-78 33t-33 78t33 78q32 32 78 32zM1020 1980q46 0 78 -32t32 -78t-32 -78q-33 -33 -78 -33t-78 33t-33 78t33 78q32 32 78 32z" />
    <glyph glyph-name="Igrave" unicode="&#xcc;" horiz-adv-x="630" 
d="M240 -27v1715h151v-1715h-151zM-98 2052h213l305 -348h-160z" />
    <glyph glyph-name="Iacute" unicode="&#xcd;" horiz-adv-x="630" 
d="M240 -27v1715h151v-1715h-151zM373 1704h-160l305 348h213z" />
    <glyph glyph-name="Icircumflex" unicode="&#xce;" horiz-adv-x="630" 
d="M240 -27v1715h151v-1715h-151zM748 1704h-175l-254 207l-260 -207h-174l379 348h109z" />
    <glyph glyph-name="Idieresis" unicode="&#xcf;" horiz-adv-x="630" 
d="M240 -27v1715h151v-1715h-151zM37 1980q46 0 78 -32t32 -78t-32 -78q-33 -33 -78 -33t-78 33t-33 78t33 78q32 32 78 32zM590 1980q46 0 78 -32t32 -78t-32 -78q-33 -33 -78 -33t-78 33t-33 78t33 78q32 32 78 32z" />
    <glyph glyph-name="Eth" unicode="&#xd0;" horiz-adv-x="1667" 
d="M221 799h-186v141h186v748h387q203 0 382 -55q173 -53 305 -164q131 -110 203 -269q73 -161 73 -369q0 -206 -73 -369q-72 -161 -203 -269q-132 -109 -305 -164q-177 -56 -382 -56h-387v826zM606 119q195 0 347 50q149 49 252 143q102 93 155 225t53 294q0 167 -59 295
q-62 135 -166 224q-108 93 -255 142q-150 50 -327 50h-233v-602h284v-141h-284v-680h233z" />
    <glyph glyph-name="Ntilde" unicode="&#xd1;" horiz-adv-x="1767" 
d="M393 1479v-1506h-153v1715h200l934 -1506v1506h154v-1715h-201zM1059 1878q44 0 69 28q24 27 39 107h136q-22 -143 -83 -207q-60 -63 -155 -63q-59 0 -104 23q-53 27 -89 50q-40 26 -75 45q-34 19 -72 19q-45 0 -68 -29q-21 -26 -36 -108h-138q22 144 86 208
q62 62 154 62q61 0 106 -23q62 -32 91 -48l77 -48q28 -16 62 -16z" />
    <glyph glyph-name="Ograve" unicode="&#xd2;" horiz-adv-x="1929" 
d="M96 831q0 189 67 352q65 159 183 278q116 118 276 184q157 65 343 65t343 -65q158 -66 275 -184q118 -119 183 -278q67 -163 67 -352q0 -188 -67 -351q-65 -159 -183 -278q-117 -118 -275 -184q-157 -65 -343 -65t-343 65q-160 66 -276 184q-118 119 -183 278
q-67 163 -67 351zM254 831q0 -171 57 -307t155 -231q99 -96 226 -146q129 -51 272 -51q142 0 271 51q126 50 226 147q97 94 156 231q58 135 58 306q0 172 -58 307q-59 136 -156 231q-100 97 -226 147q-129 51 -271 51q-143 0 -272 -51q-127 -50 -226 -146q-98 -95 -155 -231
q-57 -137 -57 -308zM547 2052h213l305 -348h-160z" />
    <glyph glyph-name="Oacute" unicode="&#xd3;" horiz-adv-x="1929" 
d="M96 831q0 189 67 352q65 159 183 278q116 118 276 184q157 65 343 65t343 -65q158 -66 275 -184q118 -119 183 -278q67 -163 67 -352q0 -188 -67 -351q-65 -159 -183 -278q-117 -118 -275 -184q-157 -65 -343 -65t-343 65q-160 66 -276 184q-118 119 -183 278
q-67 163 -67 351zM254 831q0 -171 57 -307t155 -231q99 -96 226 -146q129 -51 272 -51q142 0 271 51q126 50 226 147q97 94 156 231q58 135 58 306q0 172 -58 307q-59 136 -156 231q-100 97 -226 147q-129 51 -271 51q-143 0 -272 -51q-127 -50 -226 -146q-98 -95 -155 -231
q-57 -137 -57 -308zM1012 1704h-160l305 348h213z" />
    <glyph glyph-name="Ocircumflex" unicode="&#xd4;" horiz-adv-x="1929" 
d="M96 831q0 189 67 352q65 159 183 278q116 118 276 184q157 65 343 65t343 -65q158 -66 275 -184q118 -119 183 -278q67 -163 67 -352q0 -188 -67 -351q-65 -159 -183 -278q-117 -118 -275 -184q-157 -65 -343 -65t-343 65q-160 66 -276 184q-118 119 -183 278
q-67 163 -67 351zM254 831q0 -171 57 -307t155 -231q99 -96 226 -146q129 -51 272 -51q142 0 271 51q126 50 226 147q97 94 156 231q58 135 58 306q0 172 -58 307q-59 136 -156 231q-100 97 -226 147q-129 51 -271 51q-143 0 -272 -51q-127 -50 -226 -146q-98 -95 -155 -231
q-57 -137 -57 -308zM1395 1704h-174l-254 207l-260 -207h-175l379 348h109z" />
    <glyph glyph-name="Otilde" unicode="&#xd5;" horiz-adv-x="1929" 
d="M96 831q0 189 67 352q65 159 183 278q116 118 276 184q157 65 343 65t343 -65q158 -66 275 -184q118 -119 183 -278q67 -163 67 -352q0 -188 -67 -351q-65 -159 -183 -278q-117 -118 -275 -184q-157 -65 -343 -65t-343 65q-160 66 -276 184q-118 119 -183 278
q-67 163 -67 351zM254 831q0 -171 57 -307t155 -231q99 -96 226 -146q129 -51 272 -51q142 0 271 51q126 50 226 147q97 94 156 231q58 135 58 306q0 172 -58 307q-59 136 -156 231q-100 97 -226 147q-129 51 -271 51q-143 0 -272 -51q-127 -50 -226 -146q-98 -95 -155 -231
q-57 -137 -57 -308zM1126 1878q45 0 70 28q24 27 39 107h135q-22 -143 -83 -207q-60 -63 -154 -63q-60 0 -105 23q-48 25 -88 50q-32 20 -76 45q-34 19 -71 19q-45 0 -68 -29q-22 -28 -37 -108h-137q22 144 86 208q62 62 154 62q61 0 106 -23q54 -28 88 -48l76 -48
q32 -16 65 -16z" />
    <glyph glyph-name="Odieresis" unicode="&#xd6;" horiz-adv-x="1929" 
d="M96 831q0 189 67 352q65 159 183 278q116 118 276 184q157 65 343 65t343 -65q158 -66 275 -184q118 -119 183 -278q67 -163 67 -352q0 -188 -67 -351q-65 -159 -183 -278q-117 -118 -275 -184q-157 -65 -343 -65t-343 65q-160 66 -276 184q-118 119 -183 278
q-67 163 -67 351zM254 831q0 -171 57 -307t155 -231q99 -96 226 -146q129 -51 272 -51q142 0 271 51q126 50 226 147q97 94 156 231q58 135 58 306q0 172 -58 307q-59 136 -156 231q-100 97 -226 147q-129 51 -271 51q-143 0 -272 -51q-127 -50 -226 -146q-98 -95 -155 -231
q-57 -137 -57 -308zM690 1980q46 0 78 -32q33 -33 33 -78t-33 -78t-78 -33t-78 33q-32 32 -32 78t32 78t78 32zM1243 1980q46 0 78 -32q33 -33 33 -78t-33 -78t-78 -33t-78 33q-32 32 -32 78t32 78t78 32z" />
    <glyph glyph-name="multiply" unicode="&#xd7;" horiz-adv-x="1103" 
d="M0 102l451 451l-451 453l100 100l451 -453l453 453l100 -100l-453 -453l453 -451l-100 -100l-453 451l-451 -451z" />
    <glyph glyph-name="Oslash" unicode="&#xd8;" horiz-adv-x="1929" 
d="M96 831q0 189 67 352q65 159 183 278q116 118 276 184q157 65 343 65q159 0 297 -49q140 -49 231 -123l223 248l107 -96l-221 -248q98 -98 165 -259q66 -159 66 -352q0 -188 -67 -351q-65 -159 -183 -278q-117 -118 -275 -184q-157 -65 -343 -65q-162 0 -302 49
q-142 50 -237 127l-209 -235l-106 96l211 237q-97 100 -161 256q-65 159 -65 348zM1675 831q0 164 -52 293q-54 133 -124 205l-971 -1089q75 -63 190 -103q117 -41 247 -41q141 0 270 51q126 50 226 147q97 94 156 231q58 135 58 306zM254 831q0 -160 50 -289
q49 -126 120 -202l971 1087q-75 59 -188 99q-117 41 -242 41q-144 0 -273 -51q-127 -50 -226 -146q-98 -95 -155 -231q-57 -137 -57 -308z" />
    <glyph glyph-name="Ugrave" unicode="&#xd9;" horiz-adv-x="1841" 
d="M922 -47q-201 0 -333 55q-134 56 -217 151q-84 96 -118 220q-35 126 -35 262v1047h150v-1024q0 -284 131 -426t422 -142q288 0 419 141q132 143 132 427v1024h149v-1047q0 -136 -35 -262t-117 -220q-84 -96 -217 -151q-134 -55 -331 -55zM528 2052h213l306 -348h-160z
" />
    <glyph glyph-name="Uacute" unicode="&#xda;" horiz-adv-x="1841" 
d="M922 -47q-201 0 -333 55q-134 56 -217 151q-84 96 -118 220q-35 126 -35 262v1047h150v-1024q0 -284 131 -426t422 -142q288 0 419 141q132 143 132 427v1024h149v-1047q0 -136 -35 -262t-117 -220q-84 -96 -217 -151q-134 -55 -331 -55zM961 1704h-160l305 348h213z" />
    <glyph glyph-name="Ucircumflex" unicode="&#xdb;" horiz-adv-x="1841" 
d="M922 -47q-201 0 -333 55q-134 56 -217 151q-84 96 -118 220q-35 126 -35 262v1047h150v-1024q0 -284 131 -426t422 -142q288 0 419 141q132 143 132 427v1024h149v-1047q0 -136 -35 -262t-117 -220q-84 -96 -217 -151q-134 -55 -331 -55zM1360 1704h-174l-254 207
l-260 -207h-174l379 348h108z" />
    <glyph glyph-name="Udieresis" unicode="&#xdc;" horiz-adv-x="1841" 
d="M922 -47q-201 0 -333 55q-134 56 -217 151q-84 96 -118 220q-35 126 -35 262v1047h150v-1024q0 -284 131 -426t422 -142q288 0 419 141q132 143 132 427v1024h149v-1047q0 -136 -35 -262t-117 -220q-84 -96 -217 -151q-134 -55 -331 -55zM639 1980q46 0 78 -32
q33 -33 33 -78t-33 -78t-78 -33t-78 33t-33 78t33 78q32 32 78 32zM1192 1980q46 0 78 -32q33 -33 33 -78t-33 -78t-78 -33t-78 33t-33 78t33 78q32 32 78 32z" />
    <glyph glyph-name="Yacute" unicode="&#xdd;" horiz-adv-x="1470" 
d="M1262 1688h174l-625 -1018v-697h-152v697l-624 1018h174l526 -852zM768 1704h-160l305 348h213z" />
    <glyph glyph-name="Thorn" unicode="&#xde;" horiz-adv-x="1443" 
d="M391 340v-367h-151v1715h151v-349h400q153 0 267 -39q113 -39 187 -105q74 -67 109 -156q35 -90 35 -187q0 -100 -35 -193q-34 -89 -109 -163q-74 -72 -187 -114q-114 -42 -267 -42h-400zM391 1194v-709h373q222 0 344 88q123 89 123 279q0 75 -25 139q-24 61 -79 107
q-53 44 -144 70q-92 26 -219 26h-373z" />
    <glyph glyph-name="germandbls" unicode="&#xdf;" horiz-adv-x="1474" 
d="M199 -27v1153q0 137 31 245q31 106 102 184q68 74 177 115q107 40 257 40q109 0 207 -28q94 -27 163 -81q66 -52 107 -132q39 -77 39 -171q0 -162 -84 -261t-125 -111q24 -4 82 -29q55 -24 117 -84t99 -145q38 -87 38 -201q0 -145 -52 -243q-53 -100 -140 -159
q-92 -62 -202 -87q-112 -25 -235 -25q-47 0 -117 5q-56 4 -143 22l25 143q84 -15 137 -21q56 -6 109 -6q89 0 176 17q85 17 147 58q63 42 101 112t38 180q0 103 -36 172q-38 73 -102 119q-65 47 -151 69q-89 23 -184 23h-39v141h39q170 0 259 83t89 218q0 132 -97 205
q-98 74 -265 74q-232 0 -328 -114t-96 -351v-1129h-143z" />
    <glyph glyph-name="agrave" unicode="&#xe0;" horiz-adv-x="1232" 
d="M614 -47q-98 0 -189 18q-88 17 -162 60q-72 41 -115 110q-44 70 -44 170q0 202 158 291q157 88 418 88q50 0 116 -6q68 -6 113 -12v12q0 166 -78 237q-77 70 -239 70q-42 0 -93 -8q-45 -7 -97 -20q-41 -10 -91 -31q-38 -16 -121 -62l7 164q108 56 213 78q107 23 192 23
q227 0 340 -104t113 -329v-665q-104 -43 -215 -64q-106 -20 -226 -20zM909 524q-42 9 -105 15q-82 8 -145 8q-81 0 -150 -10q-70 -10 -129 -35q-55 -23 -88 -69q-32 -44 -32 -118q0 -66 27 -106q29 -43 71 -67q45 -25 110 -36q61 -10 136 -10q84 0 168 15q94 17 137 34v379z
M274 1688h213l306 -349h-160z" />
    <glyph glyph-name="aacute" unicode="&#xe1;" horiz-adv-x="1232" 
d="M614 -47q-98 0 -189 18q-88 17 -162 60q-72 41 -115 110q-44 70 -44 170q0 202 158 291q157 88 418 88q50 0 116 -6q68 -6 113 -12v12q0 166 -78 237q-77 70 -239 70q-42 0 -93 -8q-45 -7 -97 -20q-41 -10 -91 -31q-38 -16 -121 -62l7 164q108 56 213 78q107 23 192 23
q227 0 340 -104t113 -329v-665q-104 -43 -215 -64q-106 -20 -226 -20zM909 524q-42 9 -105 15q-82 8 -145 8q-81 0 -150 -10q-70 -10 -129 -35q-55 -23 -88 -69q-32 -44 -32 -118q0 -66 27 -106q29 -43 71 -67q45 -25 110 -36q61 -10 136 -10q84 0 168 15q94 17 137 34v379z
M598 1339h-160l305 349h213z" />
    <glyph glyph-name="acircumflex" unicode="&#xe2;" horiz-adv-x="1232" 
d="M614 -47q-98 0 -189 18q-88 17 -162 60q-72 41 -115 110q-44 70 -44 170q0 202 158 291q157 88 418 88q50 0 116 -6q68 -6 113 -12v12q0 166 -78 237q-77 70 -239 70q-42 0 -93 -8q-45 -7 -97 -20q-41 -10 -91 -31q-38 -16 -121 -62l7 164q108 56 213 78q107 23 192 23
q227 0 340 -104t113 -329v-665q-104 -43 -215 -64q-106 -20 -226 -20zM909 524q-42 9 -105 15q-82 8 -145 8q-81 0 -150 -10q-70 -10 -129 -35q-55 -23 -88 -69q-32 -44 -32 -118q0 -66 27 -106q29 -43 71 -67q45 -25 110 -36q61 -10 136 -10q84 0 168 15q94 17 137 34v379z
M1061 1339h-174l-254 207l-260 -207h-174l379 349h108z" />
    <glyph glyph-name="atilde" unicode="&#xe3;" horiz-adv-x="1232" 
d="M614 -47q-98 0 -189 18q-88 17 -162 60q-72 41 -115 110q-44 70 -44 170q0 202 158 291q157 88 418 88q50 0 116 -6q68 -6 113 -12v12q0 166 -78 237q-77 70 -239 70q-42 0 -93 -8q-45 -7 -97 -20q-41 -10 -91 -31q-38 -16 -121 -62l7 164q108 56 213 78q107 23 192 23
q227 0 340 -104t113 -329v-665q-104 -43 -215 -64q-106 -20 -226 -20zM909 524q-42 9 -105 15q-82 8 -145 8q-81 0 -150 -10q-70 -10 -129 -35q-55 -23 -88 -69q-32 -44 -32 -118q0 -66 27 -106q29 -43 71 -67q45 -25 110 -36q61 -10 136 -10q84 0 168 15q94 17 137 34v379z
M782 1507q45 0 70 28q24 27 39 107h135q-22 -142 -83 -206t-155 -64q-58 0 -104 24q-56 29 -88 49t-76 45q-34 19 -71 19q-46 0 -68 -28q-22 -27 -37 -109h-137q22 144 86 208q62 62 153 62q62 0 107 -23q54 -28 88 -48l76 -47q34 -17 65 -17z" />
    <glyph glyph-name="adieresis" unicode="&#xe4;" horiz-adv-x="1232" 
d="M614 -47q-98 0 -189 18q-88 17 -162 60q-72 41 -115 110q-44 70 -44 170q0 202 158 291q157 88 418 88q50 0 116 -6q68 -6 113 -12v12q0 166 -78 237q-77 70 -239 70q-42 0 -93 -8q-45 -7 -97 -20q-41 -10 -91 -31q-38 -16 -121 -62l7 164q108 56 213 78q107 23 192 23
q227 0 340 -104t113 -329v-665q-104 -43 -215 -64q-106 -20 -226 -20zM909 524q-42 9 -105 15q-82 8 -145 8q-81 0 -150 -10q-70 -10 -129 -35q-55 -23 -88 -69q-32 -44 -32 -118q0 -66 27 -106q29 -43 71 -67q45 -25 110 -36q61 -10 136 -10q84 0 168 15q94 17 137 34v379z
M354 1585q45 0 78 -33t33 -77q0 -45 -33 -78t-78 -33t-78 33q-32 32 -32 78q0 45 32 77q33 33 78 33zM907 1585q45 0 78 -33t33 -77q0 -45 -33 -78t-78 -33t-78 33q-32 32 -32 78q0 45 32 77q33 33 78 33z" />
    <glyph glyph-name="aring" unicode="&#xe5;" horiz-adv-x="1232" 
d="M614 -47q-98 0 -189 18q-88 17 -162 60q-72 41 -115 110q-44 70 -44 170q0 202 158 291q157 88 418 88q50 0 116 -6q68 -6 113 -12v12q0 166 -78 237q-77 70 -239 70q-42 0 -93 -8q-45 -7 -97 -20q-41 -10 -91 -31q-38 -16 -121 -62l7 164q108 56 213 78q107 23 192 23
q227 0 340 -104t113 -329v-665q-104 -43 -215 -64q-106 -20 -226 -20zM909 524q-42 9 -105 15q-82 8 -145 8q-81 0 -150 -10q-70 -10 -129 -35q-55 -23 -88 -69q-32 -44 -32 -118q0 -66 27 -106q29 -43 71 -67q45 -25 110 -36q61 -10 136 -10q84 0 168 15q94 17 137 34v379z
M629 1737q94 0 161 -61q66 -60 66 -156q0 -98 -66 -158q-65 -59 -161 -59q-98 0 -163 59q-67 61 -67 158q0 95 67 156t163 61zM629 1620q-42 0 -72 -27q-31 -28 -31 -73q0 -46 31 -74q30 -27 72 -27q40 0 70 27t30 74q0 46 -30 73t-70 27z" />
    <glyph glyph-name="ae" unicode="&#xe6;" horiz-adv-x="2082" 
d="M1468 96q128 0 223 29q94 29 185 84l70 -133q-109 -63 -214 -92q-112 -31 -264 -31q-161 0 -283 74q-124 75 -141 106v-96q-104 -43 -209 -64q-100 -20 -221 -20q-98 0 -189 18q-88 17 -162 60q-72 41 -115 110q-44 70 -44 170q0 202 158 291q157 88 418 88q50 0 116 -6
q68 -6 113 -12v12q0 166 -78 237q-77 70 -239 70q-42 0 -93 -8q-45 -7 -97 -20q-41 -10 -91 -31q-38 -16 -121 -62l7 164q108 56 213 78q107 23 192 23q189 0 294 -72t120 -154q34 67 161 147q125 79 291 79q124 0 224 -42q102 -43 173 -121q73 -80 113 -191
q42 -114 43 -275h-974q1 -67 32 -149q30 -81 87 -138t133 -90q77 -33 169 -33zM909 524q-42 9 -105 15q-82 8 -145 8q-81 0 -150 -10q-70 -10 -129 -35q-55 -23 -88 -69q-32 -44 -32 -118q0 -66 27 -106q29 -43 71 -67q45 -25 110 -36q61 -10 136 -10q84 0 168 15
q94 17 137 34v379zM1468 991q-91 0 -162 -28q-72 -28 -124 -79q-51 -49 -84 -119q-34 -71 -41 -118h798q-6 58 -37 126q-30 66 -82 118q-49 49 -118 75q-66 25 -150 25z" />
    <glyph glyph-name="ccedilla" unicode="&#xe7;" horiz-adv-x="1089" 
d="M338 -315q48 -20 84 -28q31 -7 61 -7q27 0 48 4q25 5 39 13q15 9 25 22q9 12 9 32q0 34 -26 50t-66 16q-48 0 -106 -29l-58 62l101 164q-59 16 -134 65q-77 50 -133 126t-86 168q-30 93 -30 200q0 128 45 236q46 111 122 188q79 81 182 124q105 44 224 44q123 0 219 -26
q94 -25 195 -81l-68 -133q-93 55 -165 75q-77 21 -181 21q-91 0 -169 -35q-77 -35 -132 -94q-57 -62 -86 -141q-31 -85 -31 -178t31 -178q29 -81 86 -142q53 -57 132 -93q75 -34 169 -34q101 0 181 22q72 20 165 75l68 -134q-101 -55 -195 -81q-93 -25 -219 -25q-17 0 -47 2
q-19 1 -27 4l-39 -65q33 7 34 9q0 1 -13 1q84 0 139 -46t55 -130q0 -56 -22 -93t-60 -61q-39 -25 -80 -35t-87 -10q-88 0 -193 37z" />
    <glyph glyph-name="egrave" unicode="&#xe8;" horiz-adv-x="1257" 
d="M643 96q127 0 222 29q96 29 186 84l69 -133q-109 -63 -214 -92q-112 -31 -263 -31q-124 0 -229 45q-106 45 -183 124q-78 80 -121 186q-44 109 -44 235q0 130 45 238q46 110 123 187q80 80 184 123q106 44 225 44q123 0 223 -42q102 -43 173 -121q74 -82 114 -191
q42 -114 43 -275h-975q1 -64 33 -149q30 -81 87 -138t133 -90t169 -33zM643 991q-92 0 -163 -28q-72 -28 -124 -79q-51 -49 -84 -119q-34 -71 -41 -118h799q-6 56 -38 126q-30 66 -82 118q-50 49 -117 75q-66 25 -150 25zM254 1688h213l305 -349h-160z" />
    <glyph glyph-name="eacute" unicode="&#xe9;" horiz-adv-x="1257" 
d="M643 96q127 0 222 29q96 29 186 84l69 -133q-109 -63 -214 -92q-112 -31 -263 -31q-124 0 -229 45q-106 45 -183 124q-78 80 -121 186q-44 109 -44 235q0 130 45 238q46 110 123 187q80 80 184 123q106 44 225 44q123 0 223 -42q102 -43 173 -121q74 -82 114 -191
q42 -114 43 -275h-975q1 -64 33 -149q30 -81 87 -138t133 -90t169 -33zM643 991q-92 0 -163 -28q-72 -28 -124 -79q-51 -49 -84 -119q-34 -71 -41 -118h799q-6 56 -38 126q-30 66 -82 118q-50 49 -117 75q-66 25 -150 25zM618 1339h-159l305 349h213z" />
    <glyph glyph-name="ecircumflex" unicode="&#xea;" horiz-adv-x="1257" 
d="M643 96q127 0 222 29q96 29 186 84l69 -133q-109 -63 -214 -92q-112 -31 -263 -31q-124 0 -229 45q-106 45 -183 124q-78 80 -121 186q-44 109 -44 235q0 130 45 238q46 110 123 187q80 80 184 123q106 44 225 44q123 0 223 -42q102 -43 173 -121q74 -82 114 -191
q42 -114 43 -275h-975q1 -64 33 -149q30 -81 87 -138t133 -90t169 -33zM643 991q-92 0 -163 -28q-72 -28 -124 -79q-51 -49 -84 -119q-34 -71 -41 -118h799q-6 56 -38 126q-30 66 -82 118q-50 49 -117 75q-66 25 -150 25zM1083 1339h-174l-254 207l-260 -207h-174l379 349
h109z" />
    <glyph glyph-name="edieresis" unicode="&#xeb;" horiz-adv-x="1257" 
d="M643 96q127 0 222 29q96 29 186 84l69 -133q-109 -63 -214 -92q-112 -31 -263 -31q-124 0 -229 45q-106 45 -183 124q-78 80 -121 186q-44 109 -44 235q0 130 45 238q46 110 123 187q80 80 184 123q106 44 225 44q123 0 223 -42q102 -43 173 -121q74 -82 114 -191
q42 -114 43 -275h-975q1 -64 33 -149q30 -81 87 -138t133 -90t169 -33zM643 991q-92 0 -163 -28q-72 -28 -124 -79q-51 -49 -84 -119q-34 -71 -41 -118h799q-6 56 -38 126q-30 66 -82 118q-50 49 -117 75q-66 25 -150 25zM367 1585q44 0 77 -33t33 -77q0 -45 -33 -78
t-77 -33q-45 0 -78 33t-33 78q0 44 33 77t78 33zM920 1585q44 0 77 -33t33 -77q0 -45 -33 -78t-77 -33q-45 0 -78 33t-33 78q0 44 33 77t78 33z" />
    <glyph glyph-name="igrave" unicode="&#xec;" horiz-adv-x="542" 
d="M199 -27v1139h145v-1139h-145zM-152 1688h213l306 -349h-160z" />
    <glyph glyph-name="iacute" unicode="&#xed;" horiz-adv-x="542" 
d="M199 -27v1139h145v-1139h-145zM338 1339h-160l305 349h213z" />
    <glyph glyph-name="icircumflex" unicode="&#xee;" horiz-adv-x="542" 
d="M199 -27v1139h145v-1139h-145zM702 1339h-174l-254 207l-260 -207h-174l379 349h109z" />
    <glyph glyph-name="idieresis" unicode="&#xef;" horiz-adv-x="542" 
d="M199 -27v1139h145v-1139h-145zM-4 1585q45 0 78 -33q32 -32 32 -77q0 -46 -32 -78q-33 -33 -78 -33t-78 33t-33 78q0 44 33 77t78 33zM549 1585q45 0 78 -33q32 -32 32 -77q0 -46 -32 -78q-33 -33 -78 -33t-78 33t-33 78q0 44 33 77t78 33z" />
    <glyph glyph-name="eth" unicode="&#xf0;" horiz-adv-x="1396" 
d="M700 -47q-137 0 -254 51q-115 50 -200 138q-83 86 -132 199q-48 111 -48 232q0 131 49 242q50 114 133 197q83 84 196 133q111 49 242 49q68 0 119 -13t80 -26l-170 234l-176 -138l-86 111l180 143l-129 183h176l68 -95l194 152l88 -111l-201 -157l314 -437
q43 -62 88 -134q34 -55 59 -114q23 -55 32 -108t9 -111q0 -129 -50 -244q-49 -113 -136 -197q-85 -82 -201 -131q-114 -48 -244 -48zM698 96q101 0 188 39q86 39 151 105q66 67 102 153q37 87 37 185q0 95 -37 181t-102 151q-67 67 -152 103q-90 38 -187 38q-98 0 -188 -38
q-88 -37 -152 -103q-62 -64 -100 -151q-37 -86 -37 -181q0 -98 37 -185q37 -88 101 -153q64 -66 152 -105q87 -39 187 -39z" />
    <glyph glyph-name="ntilde" unicode="&#xf1;" horiz-adv-x="1325" 
d="M199 1081q132 26 254 40q118 14 215 14q104 0 193 -21q91 -22 154 -76t98 -148q34 -92 34 -235v-682h-146v621q0 129 -23 202q-24 76 -66 118t-105 60q-60 17 -148 17q-147 0 -315 -33v-985h-145v1108zM831 1507q45 0 70 28q24 27 39 107h135q-22 -142 -83 -206t-154 -64
q-58 0 -105 24q-56 29 -88 49t-76 45q-34 19 -71 19q-46 0 -68 -28q-22 -27 -37 -109h-137q22 144 86 208q62 62 154 62q61 0 106 -23q46 -24 90 -48l78 -45q32 -19 61 -19z" />
    <glyph glyph-name="ograve" unicode="&#xf2;" horiz-adv-x="1286" 
d="M643 -47q-124 0 -228 46q-108 48 -184 127q-77 80 -121 187q-44 108 -44 230q0 121 44 229q44 107 121 187q78 81 184 128q108 48 228 48t228 -48q106 -47 184 -128q79 -82 122 -187q44 -108 44 -229q0 -122 -44 -230q-43 -105 -122 -187q-76 -79 -184 -127
q-104 -46 -228 -46zM643 96q94 0 172 36q77 36 133 96t86 142q31 84 31 173t-31 174q-29 81 -86 142q-56 60 -133 96q-78 36 -172 36t-172 -36q-77 -36 -133 -96q-57 -61 -86 -142q-31 -85 -31 -174t31 -173q30 -82 86 -142t133 -96q78 -36 172 -36zM283 1688h213l305 -349
h-160z" />
    <glyph glyph-name="oacute" unicode="&#xf3;" horiz-adv-x="1286" 
d="M643 -47q-124 0 -228 46q-108 48 -184 127q-77 80 -121 187q-44 108 -44 230q0 121 44 229q44 107 121 187q78 81 184 128q108 48 228 48t228 -48q106 -47 184 -128q79 -82 122 -187q44 -108 44 -229q0 -122 -44 -230q-43 -105 -122 -187q-76 -79 -184 -127
q-104 -46 -228 -46zM643 96q94 0 172 36q77 36 133 96t86 142q31 84 31 173t-31 174q-29 81 -86 142q-56 60 -133 96q-78 36 -172 36t-172 -36q-77 -36 -133 -96q-57 -61 -86 -142q-31 -85 -31 -174t31 -173q30 -82 86 -142t133 -96q78 -36 172 -36zM664 1339h-160l305 349
h213z" />
    <glyph glyph-name="ocircumflex" unicode="&#xf4;" horiz-adv-x="1286" 
d="M643 -47q-124 0 -228 46q-108 48 -184 127q-77 80 -121 187q-44 108 -44 230q0 121 44 229q44 107 121 187q78 81 184 128q108 48 228 48t228 -48q106 -47 184 -128q79 -82 122 -187q44 -108 44 -229q0 -122 -44 -230q-43 -105 -122 -187q-76 -79 -184 -127
q-104 -46 -228 -46zM643 96q94 0 172 36q77 36 133 96t86 142q31 84 31 173t-31 174q-29 81 -86 142q-56 60 -133 96q-78 36 -172 36t-172 -36q-77 -36 -133 -96q-57 -61 -86 -142q-31 -85 -31 -174t31 -173q30 -82 86 -142t133 -96q78 -36 172 -36zM1079 1339h-174
l-254 207l-260 -207h-174l379 349h109z" />
    <glyph glyph-name="otilde" unicode="&#xf5;" horiz-adv-x="1286" 
d="M643 -47q-124 0 -228 46q-108 48 -184 127q-77 80 -121 187q-44 108 -44 230q0 121 44 229q44 107 121 187q78 81 184 128q108 48 228 48t228 -48q106 -47 184 -128q79 -82 122 -187q44 -108 44 -229q0 -122 -44 -230q-43 -105 -122 -187q-76 -79 -184 -127
q-104 -46 -228 -46zM643 96q94 0 172 36q77 36 133 96t86 142q31 84 31 173t-31 174q-29 81 -86 142q-56 60 -133 96q-78 36 -172 36t-172 -36q-77 -36 -133 -96q-57 -61 -86 -142q-31 -85 -31 -174t31 -173q30 -82 86 -142t133 -96q78 -36 172 -36zM801 1507q44 0 69 28
q24 27 39 107h135q-22 -143 -82 -206q-61 -64 -155 -64q-59 0 -105 24q-56 29 -88 49q-40 25 -75 45q-34 19 -72 19q-46 0 -68 -28q-22 -27 -37 -109h-137q22 144 86 208q62 62 154 62q61 0 106 -23q62 -32 91 -48l77 -45q32 -19 62 -19z" />
    <glyph glyph-name="odieresis" unicode="&#xf6;" horiz-adv-x="1286" 
d="M643 -47q-124 0 -228 46q-108 48 -184 127q-77 80 -121 187q-44 108 -44 230q0 121 44 229q44 107 121 187q78 81 184 128q108 48 228 48t228 -48q106 -47 184 -128q79 -82 122 -187q44 -108 44 -229q0 -122 -44 -230q-43 -105 -122 -187q-76 -79 -184 -127
q-104 -46 -228 -46zM643 96q94 0 172 36q77 36 133 96t86 142q31 84 31 173t-31 174q-29 81 -86 142q-56 60 -133 96q-78 36 -172 36t-172 -36q-77 -36 -133 -96q-57 -61 -86 -142q-31 -85 -31 -174t31 -173q30 -82 86 -142t133 -96q78 -36 172 -36zM369 1585q44 0 77 -33
t33 -77q0 -45 -33 -78t-77 -33q-45 0 -78 33t-33 78q0 44 33 77t78 33zM922 1585q44 0 77 -33t33 -77q0 -45 -33 -78t-77 -33q-45 0 -78 33t-33 78q0 44 33 77t78 33z" />
    <glyph glyph-name="divide" unicode="&#xf7;" horiz-adv-x="1218" 
d="M66 618h1087v-141h-1087v141zM606 -47q-45 0 -78 33q-32 32 -32 77q0 46 32 78q33 33 78 33t78 -33t33 -78q0 -44 -33 -77t-78 -33zM606 913q-45 0 -78 33q-32 32 -32 78t32 78q33 33 78 33t78 -33t33 -78t-33 -78t-78 -33z" />
    <glyph glyph-name="oslash" unicode="&#xf8;" horiz-adv-x="1286" 
d="M643 -47q-109 0 -199 34q-93 35 -147 79l-145 -160l-101 92l148 164q-54 63 -94 164q-39 98 -39 217q0 121 44 229q44 107 121 187q78 81 184 128q108 48 228 48q103 0 192 -33t142 -74l174 193l100 -95l-172 -192q58 -65 100 -167q42 -103 42 -224q0 -122 -44 -230
q-43 -105 -122 -187q-76 -79 -184 -127q-104 -46 -228 -46zM643 96q94 0 172 36q77 36 133 96t86 142q31 84 31 173q0 85 -28 166q-26 76 -60 114l-582 -649q28 -25 99 -52q69 -26 149 -26zM221 543q0 -85 26 -161q26 -77 52 -110l582 648q-29 23 -96 48q-62 23 -142 23
q-94 0 -172 -36q-77 -36 -133 -96q-57 -61 -86 -142q-31 -85 -31 -174z" />
    <glyph glyph-name="ugrave" unicode="&#xf9;" horiz-adv-x="1294" 
d="M950 1112h146v-1085q-136 -39 -245 -57q-102 -17 -214 -17q-111 0 -192 20q-86 21 -145 76q-61 57 -91 149q-31 96 -31 234v680h146v-618q0 -129 20 -203q21 -79 58 -119q36 -39 99 -58q60 -18 144 -18q73 0 149 10q77 10 156 33v973zM315 1688h213l306 -349h-160z" />
    <glyph glyph-name="uacute" unicode="&#xfa;" horiz-adv-x="1294" 
d="M950 1112h146v-1085q-136 -39 -245 -57q-102 -17 -214 -17q-111 0 -192 20q-86 21 -145 76q-61 57 -91 149q-31 96 -31 234v680h146v-618q0 -129 20 -203q21 -79 58 -119q36 -39 99 -58q60 -18 144 -18q73 0 149 10q77 10 156 33v973zM653 1339h-159l305 349h213z" />
    <glyph glyph-name="ucircumflex" unicode="&#xfb;" horiz-adv-x="1294" 
d="M950 1112h146v-1085q-136 -39 -245 -57q-102 -17 -214 -17q-111 0 -192 20q-86 21 -145 76q-61 57 -91 149q-31 96 -31 234v680h146v-618q0 -129 20 -203q21 -79 58 -119q36 -39 99 -58q60 -18 144 -18q73 0 149 10q77 10 156 33v973zM1071 1339h-174l-254 207l-260 -207
h-174l379 349h108z" />
    <glyph glyph-name="udieresis" unicode="&#xfc;" horiz-adv-x="1294" 
d="M950 1112h146v-1085q-136 -39 -245 -57q-102 -17 -214 -17q-111 0 -192 20q-86 21 -145 76q-61 57 -91 149q-31 96 -31 234v680h146v-618q0 -129 20 -203q21 -79 58 -119q36 -39 99 -58q60 -18 144 -18q73 0 149 10q77 10 156 33v973zM367 1585q44 0 77 -33t33 -77
q0 -45 -33 -78t-77 -33q-45 0 -78 33t-33 78q0 44 33 77t78 33zM920 1585q44 0 77 -33t33 -77q0 -45 -33 -78t-77 -33q-45 0 -78 33t-33 78q0 44 33 77t78 33z" />
    <glyph glyph-name="yacute" unicode="&#xfd;" horiz-adv-x="1294" 
d="M950 -10q-53 -13 -144 -26q-78 -11 -169 -11q-111 0 -192 20q-86 21 -145 76q-61 57 -91 149q-31 96 -31 234v680h146v-618q0 -129 20 -203q21 -79 58 -119q36 -39 99 -58q60 -18 144 -18q73 0 149 10q77 10 156 33v973h146v-1169q0 -226 -133 -329t-357 -103
q-42 0 -97 5q-51 5 -100 15t-99 26q-42 13 -99 40l-27 180q91 -48 128 -64q42 -17 94 -30q68 -16 97 -21q51 -8 93 -8q165 0 259 72q95 72 95 235v29zM688 1339h-160l306 349h213z" />
    <glyph glyph-name="thorn" unicode="&#xfe;" horiz-adv-x="1292" 
d="M344 -477h-145v2165h145v-576q42 7 102 14q81 9 125 9q165 0 288 -46q125 -47 206 -125t122 -187q40 -107 40 -228q0 -123 -40 -230q-41 -109 -122 -190q-83 -83 -206 -129q-126 -47 -288 -47q-96 0 -227 22v-452zM344 125q66 -17 125 -23q61 -6 106 -6q127 0 221 32
q93 32 154 91q61 60 91 142t30 188q0 206 -121 324t-375 118q-54 0 -117 -9q-71 -10 -114 -19v-838z" />
    <glyph glyph-name="ydieresis" unicode="&#xff;" horiz-adv-x="1294" 
d="M950 -10q-53 -13 -144 -26q-78 -11 -169 -11q-111 0 -192 20q-86 21 -145 76q-61 57 -91 149q-31 96 -31 234v680h146v-618q0 -129 20 -203q21 -79 58 -119q36 -39 99 -58q60 -18 144 -18q73 0 149 10q77 10 156 33v973h146v-1169q0 -226 -133 -329t-357 -103
q-42 0 -97 5q-51 5 -100 15t-99 26q-42 13 -99 40l-27 180q91 -48 128 -64q42 -17 94 -30q68 -16 97 -21q51 -8 93 -8q165 0 259 72q95 72 95 235v29zM371 1585q45 0 78 -33q32 -32 32 -77q0 -46 -32 -78q-33 -33 -78 -33t-78 33t-33 78q0 44 33 77t78 33zM924 1585
q44 0 77 -33t33 -77q0 -45 -33 -78t-77 -33q-45 0 -78 33t-33 78q0 44 33 77t78 33z" />
    <glyph glyph-name="dotlessi" unicode="&#x131;" horiz-adv-x="542" 
d="M199 -27v1139h145v-1139h-145z" />
    <glyph glyph-name="Lslash" unicode="&#x141;" horiz-adv-x="1300" 
d="M418 989l313 150l62 -127l-375 -181v-712h848v-146h-1002v785l-239 -113l-60 127l299 143v773h154v-699z" />
    <glyph glyph-name="lslash" unicode="&#x142;" horiz-adv-x="757" 
d="M-35 772l340 162v754h146v-682l280 133l62 -127l-342 -164v-875h-146v803l-280 -131z" />
    <glyph glyph-name="OE" unicode="&#x152;" horiz-adv-x="2783" 
d="M1657 295q-51 -103 -246 -223q-193 -119 -446 -119q-186 0 -343 65q-160 66 -276 184q-118 119 -183 278q-67 163 -67 351q0 189 67 352q65 159 183 278q116 118 276 184q157 65 343 65q125 0 238 -32q112 -32 207 -89q93 -56 171 -140l76 -83v322h999v-146h-848v-602
h768v-149h-768v-672h858v-146h-1009v322zM254 831q0 -171 57 -307t155 -231q99 -96 226 -146q129 -51 272 -51q142 0 271 51q126 50 226 147q97 94 156 231q58 135 58 307q0 171 -58 306q-59 136 -156 231q-100 97 -226 147q-129 51 -271 51q-143 0 -272 -51
q-127 -50 -226 -146q-98 -95 -155 -231q-57 -137 -57 -308z" />
    <glyph glyph-name="oe" unicode="&#x153;" horiz-adv-x="2244" 
d="M1630 96q127 0 222 29q96 29 186 84l69 -133q-109 -63 -214 -92q-112 -31 -263 -31q-186 0 -322 96q-135 95 -173 195q-5 -10 -59 -81q-52 -67 -115 -112q-69 -48 -147 -73q-79 -25 -171 -25q-124 0 -228 46q-108 48 -184 127q-77 80 -121 187q-44 108 -44 230
q0 121 44 229q44 107 121 187q78 81 184 128q108 48 228 48q88 0 171 -26q80 -25 147 -74q66 -48 115 -112q52 -68 57 -81q39 100 177 196q139 97 320 97q122 0 223 -42q102 -43 173 -121q74 -82 114 -191q42 -114 43 -275h-975q1 -64 33 -149q30 -81 87 -138t133 -90
q77 -33 169 -33zM643 96q94 0 172 36q77 36 133 96t86 142q31 84 31 173t-31 174q-29 81 -86 142q-56 60 -133 96q-78 36 -172 36t-172 -36q-77 -36 -133 -96q-57 -61 -86 -142q-31 -85 -31 -174t31 -173q30 -82 86 -142t133 -96q78 -36 172 -36zM1630 991q-92 0 -163 -28
q-72 -28 -124 -79q-49 -47 -83 -119q-34 -71 -41 -118h798q-6 56 -38 126q-30 66 -82 118q-49 49 -117 75q-66 25 -150 25z" />
    <glyph glyph-name="Scaron" unicode="&#x160;" horiz-adv-x="1419" 
d="M186 248q115 -71 239 -112q120 -40 257 -40q209 0 327 85q117 84 117 245q0 76 -26 129q-26 54 -78 98q-50 42 -126 76q-78 34 -167 62l-123 36q-225 67 -333 186q-107 117 -107 281q0 109 46 188q47 80 122 130q77 51 169 75q89 23 191 23q155 0 298 -41
q140 -40 274 -123l-78 -129q-120 75 -239 112q-123 38 -259 38q-73 0 -144 -17q-69 -16 -117 -48q-49 -32 -77 -81t-28 -114q0 -129 83 -206q84 -78 250 -130l136 -41q87 -27 175 -66q88 -40 156 -97q72 -61 114 -139q44 -82 44 -190q0 -235 -158 -360t-442 -125
q-152 0 -298 41q-145 41 -278 123zM260 2052h174l256 -207l258 207h174l-377 -348h-110z" />
    <glyph glyph-name="scaron" unicode="&#x161;" horiz-adv-x="1169" 
d="M549 96q68 0 128 9q59 9 104 29q46 20 69 54q24 34 24 91q0 78 -61 124q-64 49 -205 78l-86 19q-104 24 -178 54t-121 71q-45 39 -67 94q-21 54 -21 119q0 64 33 120q34 57 89 95q57 39 133 60q80 22 167 22q239 0 442 -109l-65 -133q-103 57 -182 77q-82 21 -195 21
q-131 0 -199 -42q-67 -42 -67 -113q0 -76 57 -115q59 -40 207 -70l76 -16q104 -23 184 -56q75 -31 125 -75q48 -43 70 -101q20 -54 20 -124q0 -80 -35 -142q-35 -61 -99 -102q-66 -41 -153 -62q-84 -20 -194 -20q-121 0 -226 27q-109 28 -217 88l70 139q97 -59 194 -85
q96 -26 179 -26zM115 1688h174l256 -207l258 207h174l-377 -349h-111z" />
    <glyph glyph-name="Ydieresis" unicode="&#x178;" horiz-adv-x="1470" 
d="M1262 1688h174l-625 -1018v-697h-152v697l-624 1018h174l526 -852zM455 1980q45 0 77 -32q33 -33 33 -78t-33 -78t-77 -33q-45 0 -78 33t-33 78t33 78q32 32 78 32zM1008 1980q45 0 77 -32q33 -33 33 -78t-33 -78t-77 -33q-45 0 -78 33t-33 78t33 78q32 32 78 32z" />
    <glyph glyph-name="Zcaron" unicode="&#x17d;" horiz-adv-x="1460" 
d="M178 1688h1161v-132l-1065 -1437h1090v-146h-1288v129l1067 1440h-965v146zM322 2052h174l256 -207l258 207h174l-377 -348h-111z" />
    <glyph glyph-name="zcaron" unicode="&#x17e;" horiz-adv-x="1173" 
d="M143 1112h893v-125l-733 -872h744v-142h-941v125l732 873h-695v141zM156 1688h174l256 -207l258 207h174l-377 -349h-111z" />
    <glyph glyph-name="florin" unicode="&#x192;" horiz-adv-x="1269" 
d="M307 -313q-51 0 -90 10q-38 10 -104 35l30 139q61 -27 90 -33t66 -6q34 0 58 7q25 7 40 32q26 42 37 93q21 93 23 104l155 809h-141l29 145h139l78 418l22 98q15 57 41 98q34 52 96 80q60 27 119 27q41 0 75 -8q30 -7 89 -35l-31 -135q-74 32 -124 32q-52 0 -77 -18
q-25 -17 -40 -51q-14 -31 -22 -77q-5 -29 -15 -89l-62 -340h238l-29 -145h-235l-144 -756l-26 -137q-12 -79 -45 -143t-88 -109t-152 -45z" />
    <glyph glyph-name="Ohorn" unicode="&#x1a0;" horiz-adv-x="430" 
d="M-27 119h525v-146h-525v146z" />
    <glyph glyph-name="Ohorn" unicode="&#x640;" horiz-adv-x="430" 
d="M-27 119h525v-146h-525v146z" />
    <glyph glyph-name="circumflex" unicode="&#x2c6;" horiz-adv-x="768" 
d="M815 1339h-174l-254 207l-260 -207h-174l379 349h108z" />
    <glyph glyph-name="caron" unicode="&#x2c7;" horiz-adv-x="768" 
d="M-47 1688h174l256 -207l258 207h174l-377 -349h-110z" />
    <glyph glyph-name="breve" unicode="&#x2d8;" horiz-adv-x="698" 
d="M707 1688q-27 -357 -359 -357q-334 0 -356 357h137q12 -139 66 -184q53 -44 154 -44q102 0 157 43t67 185h134z" />
    <glyph glyph-name="dotaccent" unicode="&#x2d9;" horiz-adv-x="208" 
d="M104 1585q45 0 78 -33t33 -77q0 -45 -33 -78t-78 -33q-44 0 -77 33t-33 78q0 44 33 77t77 33z" />
    <glyph glyph-name="ring" unicode="&#x2da;" horiz-adv-x="444" 
d="M223 1737q94 0 161 -61t67 -156q0 -97 -67 -158q-65 -59 -161 -59q-98 0 -163 59q-66 60 -66 158q0 96 66 156q67 61 163 61zM223 1620q-41 0 -71 -27q-31 -28 -31 -73q0 -46 31 -74q30 -27 71 -27t71 27t30 74q0 46 -30 73t-71 27z" />
    <glyph glyph-name="ogonek" unicode="&#x2db;" horiz-adv-x="356" 
d="M442 23q-180 -87 -239 -132q-58 -44 -58 -88q0 -32 26 -52q25 -19 83 -19q42 0 108 22v-133q-45 -17 -72 -18q-36 -2 -57 -2q-45 0 -84 10q-40 10 -76 33q-38 24 -58 58q-21 36 -21 89q0 45 23 81q25 39 60 68q32 27 78 53q38 22 87 38z" />
    <glyph glyph-name="tilde" unicode="&#x2dc;" horiz-adv-x="798" 
d="M565 1507q45 0 70 28q24 27 39 108h135q-22 -143 -83 -207t-155 -64q-57 0 -104 24q-56 29 -88 49t-76 45q-34 19 -72 19q-45 0 -67 -28q-22 -27 -37 -109h-137q22 144 86 208q62 62 153 62q62 0 107 -23q54 -28 88 -48l78 -45q32 -19 63 -19z" />
    <glyph glyph-name="hungarumlaut" unicode="&#x2dd;" horiz-adv-x="825" 
d="M121 1339h-160l305 349h213zM514 1339h-160l305 349h211z" />
    <glyph glyph-name="pi" unicode="&#x3c0;" horiz-adv-x="1542" 
d="M256 -27v998h-180v141h1370v-141h-184v-668q0 -73 4 -108q5 -42 14 -55q11 -15 35 -20q27 -5 78 -5h53v-142h-76q-68 0 -120 11t-81 44q-30 35 -42 91q-11 52 -11 145v707h-715v-998h-145z" />
    <glyph glyph-name="uni060C" unicode="&#x60c;" horiz-adv-x="557" 
d="M307 -47h-162l201 545h123z" />
    <glyph glyph-name="uni0615" unicode="&#x615;" 
d="M-256 109h94v290h144v-116h71q94 0 150 -61q55 -59 55 -148v-101h-514v136zM-18 158v-49h139q0 5 -17 27t-51 22h-71z" />
    <glyph glyph-name="uni061B" unicode="&#x61b;" horiz-adv-x="577" 
d="M268 -47q-45 0 -78 33q-32 32 -32 77q0 46 32 78q33 33 78 33t78 -33t33 -78q0 -44 -33 -77t-78 -33zM328 735h-162l201 545h122z" />
    <glyph glyph-name="uni061F" unicode="&#x61f;" horiz-adv-x="1097" 
d="M588 74q0 51 35 86t86 35t86 -35q34 -34 34 -86t-34 -86q-35 -35 -86 -35t-86 35t-35 86zM684 1595q107 0 186 -20q84 -21 189 -76l6 -164q-110 63 -194 90q-83 27 -187 27q-82 0 -155 -25q-70 -24 -122 -70q-53 -47 -83 -110q-31 -65 -31 -139q0 -98 40 -169
q43 -76 104 -123q66 -50 147 -77q79 -26 164 -26h38v-418h-151v283q-74 7 -170 47t-167 103q-74 66 -117 158q-44 94 -44 216q0 104 39 194q38 88 112 156q70 64 174 104q102 39 222 39z" />
    <glyph glyph-name="uni0647" unicode="&#x647;" horiz-adv-x="1742" 
d="M106 119h297q-4 9 -16 85q-12 75 -12 148q0 118 28 214q28 97 86 167t139 109t185 39q105 0 184 -39t137 -109q57 -69 84 -167t27 -214q0 -77 -10 -147q-11 -79 -14 -86h258q11 51 22 141q10 80 10 158q0 139 -17 235q-19 105 -67 205q-70 148 -217 231q-146 82 -366 82
q-128 0 -233 -39q-111 -41 -220 -100l-61 133q155 80 278 116q129 38 285 38q112 0 217 -31q99 -29 186 -82q84 -51 149 -119t103 -143q60 -114 84 -242q25 -133 25 -258q0 -118 -18 -232q-19 -123 -46 -239h-1487v146zM520 352q0 -78 10 -144t15 -89h530q5 22 15 88
q10 64 10 145q0 79 -19 153q-18 72 -55 122q-39 53 -89 80q-52 28 -124 28q-74 0 -128 -27q-52 -26 -91 -79q-37 -50 -55 -122q-19 -74 -19 -155z" />
    <glyph glyph-name="uni064B" unicode="&#x64b;" 
d="M-254 80l512 74v-111l-512 -74v111zM-256 217l512 74v-111l-512 -74v111z" />
    <glyph glyph-name="uni064C" unicode="&#x64c;" 
d="M-53 102q-4 13 -4 52q0 82 46 137t138 55q69 0 113 -50q43 -49 43 -122q0 -21 -2 -51q-1 -11 -15 -84l-465 -68l-90 236l111 41l57 -156zM55 170q0 -36 4 -49l125 18q-24 -125 -18 -57t6 80q0 30 -13 50q-13 21 -46 21q-25 0 -41 -16q-17 -17 -17 -47z" />
    <glyph glyph-name="uni064D" unicode="&#x64d;" 
d="M-254 -180l512 74v-111l-512 -74v111zM-256 -43l512 74v-111l-512 -74v111z" />
    <glyph glyph-name="uni064E" unicode="&#x64e;" 
d="M-256 84l512 74v-115l-512 -74v115z" />
    <glyph glyph-name="uni064F" unicode="&#x64f;" 
d="M-252 74l166 24q-4 13 -4 54q0 82 46 137t138 55q69 0 113 -50q43 -49 43 -122q0 -21 -2 -51q-1 -11 -15 -84l-473 -68zM23 164q0 -36 4 -45l125 18q-17 -88 -20 -80q-1 3 1 23q6 68 6 80q0 30 -13 50q-14 21 -46 21q-25 0 -41 -16t-16 -51z" />
    <glyph glyph-name="uni0650" unicode="&#x650;" 
d="M-256 -43l512 74v-115l-512 -74v115z" />
    <glyph glyph-name="uni0651" unicode="&#x651;" 
d="M-111 -27q-50 0 -98 31q-46 29 -61 109l-23 125l115 22l24 -119q7 -34 21 -44q12 -9 29 -9q24 0 41 21q16 20 16 57q0 44 -14 115l116 18l25 -121q5 -22 16 -33q12 -12 31 -12q28 0 40 11q13 12 13 40q0 58 -30 144l120 28q6 -40 15 -75q3 -15 7 -45q3 -23 3 -41
q0 -83 -47 -130t-129 -47q-43 0 -65 19q-20 17 -25 29q-6 -27 -39 -60t-101 -33z" />
    <glyph glyph-name="uni0652" unicode="&#x652;" 
d="M-6 -27q-77 0 -123 46q-47 47 -47 141q0 88 51 139t131 51q84 0 129 -52t45 -139q0 -86 -53 -136t-133 -50zM0 78q26 0 47 14q23 15 23 66q0 46 -22 66t-48 20q-20 0 -42 -17q-21 -17 -21 -65q0 -55 18 -70q17 -14 45 -14z" />
    <glyph glyph-name="uni0653" unicode="&#x653;" horiz-adv-x="686" 
d="M86 1624h514v-145h-514v145z" />
    <glyph glyph-name="uni0654" unicode="&#x654;" horiz-adv-x="686" 
d="M150 1567q0 128 60 200t183 72h101v-145h-86q-66 0 -89 -24q-22 -23 -22 -46h262v-145h-409v88z" />
    <glyph glyph-name="uni0655" unicode="&#x655;" horiz-adv-x="686" 
d="M393 -430q-123 0 -183 72t-60 200v88h409v-145h-262q0 -23 22 -46q23 -24 89 -24h86v-145h-101z" />
    <glyph glyph-name="uni0656" unicode="&#x656;" 
d="M-63 27h126v-430l-126 -19v449z" />
    <glyph glyph-name="uni0658" unicode="&#x658;" 
d="M55 -27q-132 0 -200 59t-68 201v173h135v-168q0 -40 9 -62q9 -23 26 -35q17 -13 41 -17q27 -5 59 -5h11v287h145v-433h-158zM-63 541h126l-10 -330l-104 -12z" />
    <glyph glyph-name="uni0660" unicode="&#x660;" horiz-adv-x="958" 
d="M479 762l168 -168l-168 -168l-168 168z" />
    <glyph glyph-name="uni0661" unicode="&#x661;" horiz-adv-x="829" 
d="M342 -27v1385h145v-1385h-145z" />
    <glyph glyph-name="uni0662" unicode="&#x662;" horiz-adv-x="1280" 
d="M291 -27v1385h145v-613q41 -20 124 -36q76 -15 155 -15q134 0 198 67t64 210v387h145v-379q0 -205 -103 -317q-104 -113 -304 -113q-75 0 -164 15q-84 14 -115 28v-619h-145z" />
    <glyph glyph-name="uni0663" unicode="&#x663;" horiz-adv-x="1464" 
d="M291 -27v1385h145v-639q27 -10 68 -18q38 -7 80 -7q46 0 79 11t50 34q17 22 28 69q11 46 11 114v436h145v-428q0 -136 -27 -197q16 -5 54 -12q34 -6 80 -6q48 0 78 10q33 11 51 35q17 23 28 68q10 41 10 114v416h146v-408q0 -201 -78 -291t-235 -90q-58 0 -113 15
q-64 17 -94 30q-65 -65 -213 -65q-53 0 -94 7q-45 8 -54 13v-596h-145z" />
    <glyph glyph-name="uni0664" unicode="&#x664;" horiz-adv-x="1288" 
d="M729 -27q-103 0 -193 17q-88 17 -152 57q-63 40 -99 111q-35 70 -35 172q0 95 40 169q39 73 93 119q-31 72 -56 164q-24 88 -24 191q0 94 31 176q30 79 89 138t141 90q84 32 186 32q46 0 93 -5q33 -4 82 -18q45 -13 85 -28l116 -43l-45 -133l-127 47q-61 17 -75 20
q-44 10 -66 12q-33 3 -76 3q-136 0 -212 -79t-76 -222q0 -84 17 -148q19 -72 40 -115q33 20 108 46q82 29 160 49l227 53l29 -143l-244 -58q-72 -16 -145 -45q-74 -29 -126 -67q-53 -38 -87 -91q-33 -51 -33 -114q0 -72 27 -113t72 -62q47 -22 107 -29q59 -7 128 -7h412
v-146h-412z" />
    <glyph glyph-name="uni0665" unicode="&#x665;" horiz-adv-x="1374" 
d="M676 -47q-228 0 -358 124t-130 398q0 183 34 347q36 172 96 297q63 131 156 210q94 80 212 80q103 0 195 -71q91 -70 159 -195q68 -126 107 -296q39 -171 39 -372q0 -150 -40 -251t-111 -163q-69 -60 -163 -85q-88 -23 -196 -23zM676 100q82 0 151 20q67 20 114 60
q47 41 71 113t24 182q0 158 -26 297q-26 141 -74 253q-47 110 -113 173q-67 64 -147 64q-61 0 -123 -64q-61 -62 -111 -175q-48 -109 -76 -254q-28 -148 -28 -294q0 -109 23 -178q24 -72 67 -115q42 -42 106 -62q65 -20 142 -20z" />
    <glyph glyph-name="uni0666" unicode="&#x666;" horiz-adv-x="1159" 
d="M723 -27v1239h-606v146h751v-1385h-145z" />
    <glyph glyph-name="uni0667" unicode="&#x667;" horiz-adv-x="1290" 
d="M551 -27l-455 1385h154l407 -1252h-36l421 1252h152l-471 -1385h-172z" />
    <glyph glyph-name="uni0668" unicode="&#x668;" horiz-adv-x="1290" 
d="M1042 -27l-421 1252h36l-407 -1252h-154l455 1385h172l471 -1385h-152z" />
    <glyph glyph-name="uni0669" unicode="&#x669;" horiz-adv-x="1296" 
d="M860 -27v445q-1 0 -5.5 -0.5t-14 -1t-19.5 -0.5q-46 -2 -67 -2q-122 0 -222 22t-180 76q-77 52 -121 142q-43 87 -43 216q0 236 155 362t470 126h193v-1385h-146zM696 559q40 0 98 2q12 0 66 4v647h-84q-208 0 -325 -84t-117 -258q0 -86 26 -142t74 -95q45 -36 114 -55
q70 -19 148 -19z" />
    <glyph glyph-name="uni066A" unicode="&#x66a;" horiz-adv-x="1140" 
d="M324 1204q-49 0 -84 35t-35 84q0 48 34 83q34 36 85 36q50 0 85 -36q33 -34 33 -83q0 -50 -34 -84q-35 -35 -84 -35zM831 160q-48 0 -83 35t-35 84q0 48 33 82q34 36 85 36t85 -36q34 -35 34 -82q0 -49 -35 -84t-84 -35zM879 1839h145l-756 -2122h-151z" />
    <glyph glyph-name="uni066B" unicode="&#x66b;" horiz-adv-x="557" 
d="M307 -47h-162l201 545h123z" />
    <glyph glyph-name="uni066C" unicode="&#x66c;" horiz-adv-x="557" 
d="M307 956h-162l201 545h123z" />
    <glyph glyph-name="uni066D" unicode="&#x66d;" horiz-adv-x="1198" 
d="M782 526l226 -499l-410 366l-408 -366l228 499l-475 273l544 -58l111 537l115 -537l544 58z" />
    <glyph glyph-name="uni066E" unicode="&#x66e;" horiz-adv-x="1632" 
d="M723 -27q-82 0 -152 8t-119 23q-54 17 -100 41q-43 23 -90 59q-81 61 -118 158q-38 100 -38 191v456h146v-436q0 -103 29 -166q29 -61 84 -102q58 -44 135 -65q78 -21 166 -21h694v993h145v-1139h-782z" />
    <glyph glyph-name="uni066F" unicode="&#x66f;" horiz-adv-x="1652" 
d="M723 -477q-90 0 -152 7q-64 7 -119 24q-59 18 -100 40q-39 21 -90 60q-81 61 -118 158q-38 100 -38 190v547h146v-526q0 -103 29 -166t84 -103q56 -43 135 -64q82 -22 166 -22h714v305h-96q-140 0 -264 30t-223 96q-98 65 -157 176q-58 109 -58 268q0 120 48 225
q47 104 140 181q92 77 222 120q129 43 292 43h242v-1589h-803zM727 543q0 -106 38 -187q37 -80 105 -132q66 -51 160 -79q88 -26 197 -26h153v848h-153q-97 0 -190 -32q-88 -30 -159 -86q-70 -55 -110 -133q-41 -80 -41 -173z" />
    <glyph glyph-name="uni0670" unicode="&#x670;" 
d="M-63 418h126v-430l-126 -19v449z" />
    <glyph glyph-name="uni06A1" unicode="&#x6a1;" horiz-adv-x="2052" 
d="M723 -27q-82 0 -152 8t-119 23q-54 17 -100 41q-43 23 -90 59q-81 61 -118 158q-38 100 -38 191v456h146v-436q0 -103 29 -166q29 -61 84 -102q58 -44 135 -65q78 -21 166 -21h483q-37 27 -113 143q-75 115 -75 283q0 119 44 225q43 104 131 181t215 119t291 42h283
v-1139h-1202zM1106 545q0 -144 84 -252t207 -174h383v848h-195q-101 0 -186 -30q-88 -31 -152 -86q-66 -57 -103 -134q-38 -79 -38 -172z" />
    <glyph glyph-name="uni06C2" unicode="&#x6c2;" horiz-adv-x="1196" 
d="M799 -27q-132 0 -258 32t-222 101q-93 67 -154 179q-59 109 -59 258q0 118 49 225q47 104 140 181q91 77 219 120q126 43 285 43h96v102h145v-1241h-241zM895 119v848h-154q-91 0 -181 -32q-88 -31 -158 -86q-69 -54 -109 -133q-41 -80 -41 -173q0 -98 38 -179
q39 -82 103 -133q67 -53 156 -83q87 -29 192 -29h154zM610 1485q0 128 61 201q59 71 183 71h141v-145h-127q-66 0 -88 -24q-22 -23 -22 -72v-56h303v-145h-451v170z" />
    <glyph glyph-name="uni06C3" unicode="&#x6c3;" horiz-adv-x="1196" 
d="M799 -27q-132 0 -258 32t-222 101q-93 67 -154 179q-59 109 -59 258q0 118 49 225q47 104 140 181q91 77 219 120q126 43 285 43h96v102h145v-1241h-241zM895 119v848h-154q-91 0 -181 -32q-88 -31 -158 -86q-69 -54 -109 -133q-41 -80 -41 -173q0 -98 38 -179
q39 -82 103 -133q67 -53 156 -83q87 -29 192 -29h154zM592 1403q-45 0 -78 33t-33 77q0 45 33 78t78 33t78 -33q32 -32 32 -78q0 -45 -32 -77q-33 -33 -78 -33zM958 1403q-44 0 -77 33t-33 77q0 45 33 78t77 33q45 0 78 -33t33 -78q0 -44 -33 -77t-78 -33z" />
    <glyph glyph-name="uni06D5" unicode="&#x6d5;" horiz-adv-x="1196" 
d="M799 -27q-132 0 -258 32t-222 101q-93 67 -154 179q-59 109 -59 258q0 118 49 225q47 104 140 181q91 77 219 120q126 43 285 43h96v102h145v-1241h-241zM895 119v848h-154q-91 0 -181 -32q-88 -31 -158 -86q-69 -54 -109 -133q-41 -80 -41 -173q0 -98 38 -179
q39 -82 103 -133q67 -53 156 -83q87 -29 192 -29h154z" />
    <glyph glyph-name="uni06F0" unicode="&#x6f0;" horiz-adv-x="958" 
d="M479 762l168 -168l-168 -168l-168 168z" />
    <glyph glyph-name="uni06F1" unicode="&#x6f1;" horiz-adv-x="829" 
d="M342 -27v1385h145v-1385h-145z" />
    <glyph glyph-name="uni06F2" unicode="&#x6f2;" horiz-adv-x="1280" 
d="M291 -27v1385h145v-613q41 -20 124 -36q76 -15 155 -15q134 0 198 67t64 210v387h145v-379q0 -205 -103 -317q-104 -113 -304 -113q-75 0 -164 15q-84 14 -115 28v-619h-145z" />
    <glyph glyph-name="uni06F3" unicode="&#x6f3;" horiz-adv-x="1464" 
d="M291 -27v1385h145v-639q27 -10 68 -18q38 -7 80 -7q46 0 79 11t50 34q17 22 28 69q11 46 11 114v436h145v-428q0 -136 -27 -197q16 -5 54 -12q34 -6 80 -6q48 0 78 10q33 11 51 35q17 23 28 68q10 41 10 114v416h146v-408q0 -201 -78 -291t-235 -90q-58 0 -113 15
q-64 17 -94 30q-65 -65 -213 -65q-53 0 -94 7q-45 8 -54 13v-596h-145z" />
    <glyph glyph-name="uni06F4" unicode="&#x6f4;" horiz-adv-x="1480" 
d="M291 -27v1385h145v-582q21 -8 92 -23q56 -12 86 -18q-13 43 -29 124q-14 73 -14 151q0 74 25 151q23 71 72 128q46 53 114 88q67 34 154 34q82 0 142 -18q55 -16 171 -62l-49 -133q-60 23 -106 40q-22 8 -58 17q-32 8 -49 9q-32 2 -59 2q-107 0 -160 -74t-53 -188
q0 -46 3 -80q3 -38 10 -69q10 -46 17 -69q9 -29 23 -61h8q133 0 235 33q98 32 230 90l68 -129q-151 -72 -266 -105q-120 -34 -267 -34q-44 0 -88 4q-66 6 -101 11q-58 8 -102 19l-49 13v-654h-145z" />
    <glyph glyph-name="uni06F5" unicode="&#x6f5;" horiz-adv-x="1372" 
d="M502 -47q-61 0 -116 23t-101 77q-46 53 -71 135q-26 84 -26 199q0 253 115 466q115 212 297 380q-35 25 -64 45q-36 25 -114 74l78 125q165 -95 295 -210q129 -114 223 -259q93 -138 151 -300q58 -163 58 -313q0 -117 -26 -201t-71 -138q-47 -56 -104 -79
q-60 -24 -127 -24q-75 0 -131 22q-57 23 -63 39q-11 -16 -69 -39q-57 -22 -134 -22zM846 999q-34 40 -71 80q-41 44 -58 58q-74 -57 -148 -145q-75 -89 -126 -185q-52 -98 -79 -205q-28 -110 -28 -215q0 -71 14 -123q15 -56 38 -92q24 -38 53 -55q32 -19 61 -19q42 0 68 15
q27 16 41 37q16 24 22 53q6 30 6 88h135q0 -57 6 -87q6 -29 21 -53q14 -22 39 -38q24 -15 61 -15q73 0 126 62q52 61 52 205q0 179 -62 335q-63 160 -171 299z" />
    <glyph glyph-name="uni06F6" unicode="&#x6f6;" horiz-adv-x="1288" 
d="M250 -27v357q0 95 40 169q39 73 93 119q-31 72 -56 164q-24 88 -24 191q0 94 31 176q30 79 89 138t141 90q84 32 186 32q46 0 93 -5q33 -4 82 -18q45 -13 85 -28l116 -43l-45 -133l-127 47q-61 17 -75 20q-44 10 -66 12q-33 3 -76 3q-136 0 -212 -79t-76 -222
q0 -84 17 -148q19 -72 40 -115q33 20 108 46q82 29 160 49l227 53l29 -143l-244 -58q-72 -16 -145 -45q-74 -29 -126 -67q-53 -38 -87 -91q-33 -51 -33 -114v-357h-145z" />
    <glyph glyph-name="uni06F7" unicode="&#x6f7;" horiz-adv-x="1290" 
d="M551 -27l-455 1385h154l407 -1252h-36l421 1252h152l-471 -1385h-172z" />
    <glyph glyph-name="uni06F8" unicode="&#x6f8;" horiz-adv-x="1290" 
d="M1042 -27l-421 1252h36l-407 -1252h-154l455 1385h172l471 -1385h-152z" />
    <glyph glyph-name="uni06F9" unicode="&#x6f9;" horiz-adv-x="1296" 
d="M860 -27v445q-1 0 -5.5 -0.5t-14 -1t-19.5 -0.5q-46 -2 -67 -2q-122 0 -222 22t-180 76q-77 52 -121 142q-43 87 -43 216q0 236 155 362t470 126h193v-1385h-146zM696 559q40 0 98 2q12 0 66 4v647h-84q-208 0 -325 -84t-117 -258q0 -86 26 -142t74 -95q45 -36 114 -55
q70 -19 148 -19z" />
    <glyph glyph-name="endash" unicode="&#x2013;" horiz-adv-x="1208" 
d="M66 618h1077v-141h-1077v141z" />
    <glyph glyph-name="emdash" unicode="&#x2014;" horiz-adv-x="1699" 
d="M66 618h1568v-141h-1568v141z" />
    <glyph glyph-name="quoteleft" unicode="&#x2018;" horiz-adv-x="505" 
d="M223 1143h-162l201 545h123z" />
    <glyph glyph-name="quoteright" unicode="&#x2019;" horiz-adv-x="505" 
d="M227 1688h162l-201 -545h-122z" />
    <glyph glyph-name="quotesinglbase" unicode="&#x201a;" horiz-adv-x="505" 
d="M227 178h162l-201 -545h-122z" />
    <glyph glyph-name="quotedblleft" unicode="&#x201c;" horiz-adv-x="894" 
d="M612 1143h-161l200 545h123zM223 1143h-162l201 545h123z" />
    <glyph glyph-name="quotedblright" unicode="&#x201d;" horiz-adv-x="894" 
d="M227 1688h162l-201 -545h-122zM616 1688h162l-200 -545h-123z" />
    <glyph glyph-name="quotedblbase" unicode="&#x201e;" horiz-adv-x="894" 
d="M227 178h162l-201 -545h-122zM616 178h162l-200 -545h-123z" />
    <glyph glyph-name="dagger" unicode="&#x2020;" horiz-adv-x="1218" 
d="M537 1053h-492v141h492v494h145v-494h492v-141h-492v-1080h-145v1080z" />
    <glyph glyph-name="daggerdbl" unicode="&#x2021;" horiz-adv-x="1280" 
d="M567 1083h-491v142h491v463h146v-463h491v-142h-491v-493h491v-141h-491v-476h-146v476h-491v141h491v493z" />
    <glyph glyph-name="bullet" unicode="&#x2022;" horiz-adv-x="956" 
d="M479 360q-89 0 -166 33t-130 89q-55 58 -86 130t-31 160q0 87 31 161q30 72 86 131q53 56 130 89q76 33 166 33q88 0 163 -33t131 -89q58 -58 87 -131q31 -77 31 -161t-31 -160q-30 -73 -87 -130q-56 -56 -131 -89t-163 -33z" />
    <glyph glyph-name="ellipsis" unicode="&#x2026;" horiz-adv-x="1650" 
d="M248 -47q-45 0 -78 33t-33 77q0 45 33 78t78 33t78 -33q32 -32 32 -78q0 -45 -32 -77q-33 -33 -78 -33zM825 -47q-44 0 -77 33t-33 77q0 45 33 78t77 33q45 0 78 -33t33 -78q0 -44 -33 -77t-78 -33zM1403 -47q-45 0 -78 33t-33 77q0 45 33 78t78 33t78 -33q32 -32 32 -78
q0 -45 -32 -77q-33 -33 -78 -33z" />
    <glyph glyph-name="perthousand" unicode="&#x2030;" horiz-adv-x="2912" 
d="M322 -27l1198 1715h170l-1198 -1715h-170zM1507 -47q-101 0 -178 39q-76 39 -124 108q-46 66 -71 164q-24 94 -24 209t24 208q25 97 71 163q49 70 124 107q78 38 178 38q98 0 176 -38q76 -37 125 -106q49 -68 73 -163q24 -94 24 -209t-24 -210q-24 -96 -73 -164
t-125 -107q-77 -39 -176 -39zM1507 92q116 0 183 91t67 290q0 200 -67 289q-68 90 -183 90t-182 -90q-68 -91 -68 -289q0 -199 69 -290t181 -91zM504 674q-102 0 -178 39t-124 108t-72 164t-24 209q0 115 24 208q24 95 72 163q49 70 124 107q78 38 178 38q98 0 176 -38
q76 -37 125 -106q49 -68 73 -163q23 -91 23 -209q0 -119 -23 -210q-24 -96 -73 -164t-125 -107t-176 -39zM504 813q115 0 182 91q68 92 68 290t-68 289q-68 90 -182 90q-115 0 -182 -90q-68 -91 -68 -289t69 -290q69 -91 181 -91zM2408 -47q-102 0 -178 39t-124 108
q-46 66 -71 164q-24 95 -24 209q0 115 24 208q25 97 71 163q49 70 124 107q78 38 178 38q99 0 177 -38q76 -37 125 -106q47 -66 72 -163q24 -94 24 -209t-24 -210q-25 -99 -72 -164q-49 -68 -125 -107q-77 -39 -177 -39zM2408 92q116 0 183 91t67 290q0 200 -67 289
q-68 90 -183 90q-114 0 -182 -90q-67 -89 -67 -289t68 -290q69 -91 181 -91z" />
    <glyph glyph-name="guilsinglleft" unicode="&#x2039;" horiz-adv-x="630" 
d="M49 563l383 549h168l-377 -547l377 -551h-166z" />
    <glyph glyph-name="guilsinglright" unicode="&#x203a;" horiz-adv-x="630" 
d="M197 14h-166l377 551l-377 547h168l383 -549z" />
    <glyph glyph-name="fraction" unicode="&#x2044;" horiz-adv-x="1060" 
d="M-154 -27l1198 1715h170l-1198 -1715h-170z" />
    <glyph glyph-name="Euro" unicode="&#x20ac;" horiz-adv-x="1863" 
d="M360 700q-8 50 -8 131q0 50 5 108q4 47 10 71h-387l65 141h356q35 110 111 214q78 107 180 183q105 78 238 120q134 42 289 42q157 0 297 -36q141 -36 270 -115l-68 -129q-117 69 -237 103t-262 34q-111 0 -213 -30q-105 -31 -190 -88q-86 -58 -154 -141
q-69 -85 -93 -157h731l-65 -141h-709q-16 -74 -16 -179q0 -78 8 -131h633l-66 -141h-534q24 -84 91 -179q65 -92 157 -156q88 -61 196 -95q107 -33 224 -33q142 0 262 34t237 103l68 -129q-129 -79 -270 -115q-140 -36 -297 -36q-166 0 -301 46q-137 47 -245 129
q-107 82 -180 199q-76 121 -104 232h-409l65 141h315z" />
    <glyph glyph-name="trademark" unicode="&#x2122;" horiz-adv-x="2064" 
d="M319 1550h-315v138h772v-138h-315v-831h-142v831zM1278 719l-309 731v-731h-142v969h197l324 -770l319 770h199v-969h-142v731l-309 -731h-137z" />
    <glyph glyph-name="Omega" unicode="&#x2126;" horiz-adv-x="1851" 
d="M926 1710q151 0 300 -47q146 -46 262 -141q115 -94 186 -233t71 -318q0 -144 -47 -262q-46 -115 -121 -204t-168 -145q-92 -56 -170 -77v-168h430v-142h-577v416q124 23 217 76q88 50 152 126t98 170q34 93 34 210q0 143 -53 255t-144 188q-93 78 -212 119
q-122 42 -258 42t-258 -42q-119 -41 -212 -119q-92 -77 -146 -188t-54 -255q0 -114 35 -210q34 -94 98 -170q62 -74 154 -126q93 -53 217 -76v-416h-578v142h426v168q-77 22 -168 77q-93 56 -168 145q-72 85 -119 205t-47 261q0 179 71 318q70 137 187 233q116 95 262 141
q149 47 300 47z" />
    <glyph glyph-name="twothirds" unicode="&#x2154;" horiz-adv-x="2017" 
d="M1518 -47q-60 0 -115 18q-53 17 -97 55q-43 37 -68 85q-26 50 -26 135h119q12 -91 58 -131q45 -39 127 -39q43 0 79 13q37 13 64 36t42 54t15 69q0 80 -55 123t-168 43v123q107 0 158 42t51 115q0 64 -48 102q-49 38 -120 38q-77 0 -117 -34q-41 -35 -47 -126h-123
q15 145 88 213q73 69 201 69q61 0 111 -20q54 -21 93 -55q39 -33 62 -84t23 -105q0 -80 -45 -144t-58 -69q17 -6 67 -76t50 -151q0 -64 -24 -119q-22 -51 -69 -95q-44 -40 -102 -63q-57 -22 -126 -22zM553 -8l942 1626l113 -64l-942 -1626zM559 1012l59 63q36 40 57 68
q27 37 41 71q15 38 15 72q0 78 -58 124t-147 46q-93 0 -149 -47q-55 -46 -55 -156h-125q5 85 17 128q14 49 54 92q46 50 118 78q73 28 140 28q65 0 126 -23q64 -24 106 -62q45 -40 70 -94q26 -55 26 -118q0 -54 -17 -98q-19 -49 -46 -89q-25 -37 -62 -79t-63 -68l-234 -237
h418v-123h-709z" />
    <glyph glyph-name="partialdiff" unicode="&#x2202;" horiz-adv-x="1396" 
d="M700 -47q-137 0 -254 51q-115 50 -200 138q-83 86 -132 199q-48 111 -48 232q0 131 49 242q50 114 133 197q83 84 196 133q111 49 242 49q68 0 119 -13t80 -26l-381 533h176l463 -648q43 -62 88 -134q34 -55 59 -114q23 -55 32 -108t9 -111q0 -129 -50 -244
q-49 -113 -136 -197q-85 -82 -201 -131q-114 -48 -244 -48zM698 96q101 0 188 39q86 39 151 105q66 67 102 153q37 87 37 185q0 95 -37 181t-102 151q-67 67 -152 103q-90 38 -187 38q-98 0 -188 -38q-88 -37 -152 -103q-62 -64 -100 -151q-37 -86 -37 -181q0 -98 37 -185
q37 -88 101 -153q64 -66 152 -105q87 -39 187 -39z" />
    <glyph glyph-name="Delta" unicode="&#x2206;" horiz-adv-x="1605" 
d="M803 1698l825 -1727h-1651zM803 1376l-596 -1263h1196z" />
    <glyph glyph-name="product" unicode="&#x220f;" horiz-adv-x="1634" 
d="M199 -477v2165h1237v-2165h-146v2023h-946v-2023h-145z" />
    <glyph glyph-name="summation" unicode="&#x2211;" horiz-adv-x="1341" 
d="M743 604l-708 961v123h1272v-142h-1082l705 -942l-705 -942h1082v-141h-1272v123z" />
    <glyph glyph-name="minus" unicode="&#x2212;" horiz-adv-x="1218" 
d="M66 618h1087v-141h-1087v141z" />
    <glyph glyph-name="radical" unicode="&#x221a;" horiz-adv-x="1368" 
d="M350 621l393 -871l406 1938h149l-452 -2165h-154l-418 903l-163 -80l-64 135z" />
    <glyph glyph-name="infinity" unicode="&#x221e;" horiz-adv-x="1914" 
d="M473 186q-87 0 -164 30q-75 29 -130 83q-53 52 -84 124q-29 68 -29 155q0 86 29 154q31 73 85 124q56 53 132 83q77 30 167 30q125 0 245 -69q118 -68 232 -206q107 131 222 202q119 73 254 73q92 0 169 -30t132 -82q57 -54 86 -124q30 -72 30 -155q0 -87 -29 -155
q-31 -72 -84 -124q-55 -54 -130 -83q-76 -30 -164 -30q-144 0 -266 79q-124 80 -222 202q-100 -126 -217 -203q-119 -78 -264 -78zM1442 330q57 0 101 17q47 18 79 49q31 30 52 79q20 48 20 103q0 113 -72 182t-195 69q-102 0 -195 -66q-92 -65 -188 -181q101 -124 195 -188
t203 -64zM477 829q-59 0 -103 -17q-47 -18 -80 -50q-32 -31 -53 -80q-20 -48 -20 -104q0 -52 20 -100q19 -46 52 -79t80 -51t100 -18q121 0 212 66q86 62 179 182q-100 124 -189 187q-91 64 -198 64z" />
    <glyph glyph-name="integral" unicode="&#x222b;" horiz-adv-x="612" 
d="M379 -72q0 -106 -31 -185q-29 -75 -88 -126q-57 -49 -132 -72q-73 -22 -165 -22h-92v141h106q145 0 201 73q55 71 55 249v1296q0 101 31 183q29 77 88 128q57 49 132 72q77 23 165 23h92v-142h-106q-145 0 -201 -72q-55 -71 -55 -249v-1297z" />
    <glyph glyph-name="approxequal" unicode="&#x2248;" horiz-adv-x="1300" 
d="M922 739q68 0 111 36q45 37 61 140h145q-23 -174 -106 -246q-85 -73 -211 -73q-78 0 -149 30q-88 37 -138 63q-73 37 -132 62q-65 27 -126 27q-68 0 -111 -37t-59 -141h-146q23 174 106 247q84 73 210 73q83 0 160 -30q78 -31 142 -64q39 -20 127 -60q60 -27 116 -27z
M922 289q68 0 111 37q45 39 61 141h145q-23 -174 -106 -246q-83 -71 -211 -71q-80 0 -149 28q-71 28 -138 63q-51 26 -132 60q-65 27 -126 27q-67 0 -111 -36q-42 -35 -59 -138h-146q22 171 106 244t210 73q83 0 160 -30q86 -34 142 -63q67 -35 127 -62t116 -27z" />
    <glyph glyph-name="notequal" unicode="&#x2260;" horiz-adv-x="1218" 
d="M66 844h716l234 270h168l-232 -270h201v-142h-322l-266 -309h588v-141h-709l-237 -279h-174l239 279h-206v141h327l269 309h-596v142z" />
    <glyph glyph-name="lessequal" unicode="&#x2264;" horiz-adv-x="1501" 
d="M1405 315v-155l-1309 430v129l1309 426v-156l-1061 -334zM96 115h1309v-142h-1309v142z" />
    <glyph glyph-name="greaterequal" unicode="&#x2265;" horiz-adv-x="1501" 
d="M1157 655l-1061 334v156l1309 -426v-129l-1309 -430v155zM1405 -27h-1309v142h1309v-142z" />
    <glyph glyph-name="lozenge" unicode="&#x25ca;" horiz-adv-x="1304" 
d="M229 768l424 -729l426 729l-426 727zM653 1772l590 -1004l-590 -1006l-592 1006z" />
    <glyph glyph-name="uni25CC" unicode="&#x25cc;" horiz-adv-x="1402" 
d="M610 918q0 36 27 63t65 27q37 0 64 -27t27 -63q0 -39 -27 -66t-64 -27q-38 0 -65 27t-27 66zM397 866q0 37 27 64q26 26 65 26q38 0 64 -26q27 -27 27 -64q0 -38 -27 -65t-64 -27q-38 0 -65 27t-27 65zM829 866q0 37 27 64q26 26 64 26q42 0 65 -26q25 -28 25 -64
q0 -37 -25 -65q-24 -27 -65 -27q-37 0 -64 27t-27 65zM993 698q0 37 27 64q26 26 63 26q38 0 64 -26q27 -27 27 -64q0 -36 -27 -63t-64 -27q-36 0 -63 27t-27 63zM238 698q0 37 24 64q23 26 66 26q37 0 63 -26q27 -27 27 -64q0 -36 -27 -63t-63 -27q-42 0 -66 27t-24 63z
M178 477q0 37 27 64q26 26 63 26q43 0 66 -26q24 -27 24 -64q0 -39 -25 -64q-26 -26 -65 -26q-35 0 -63 25q-27 24 -27 65zM1044 477q0 37 27 64q26 26 64 26q37 0 63 -26q27 -27 27 -64q0 -41 -27 -65q-28 -25 -63 -25q-36 0 -64 25q-27 24 -27 65zM993 262q0 37 27 64
q26 26 63 26q38 0 64 -26q27 -27 27 -64q0 -36 -27 -63t-64 -27q-36 0 -63 27t-27 63zM238 262q0 37 24 64q23 26 66 26q37 0 63 -26q27 -27 27 -64q0 -36 -27 -63t-63 -27q-42 0 -66 27t-24 63zM397 104q0 37 27 64t65 27q37 0 64 -27t27 -64q0 -41 -27 -65
q-28 -25 -64 -25q-37 0 -65 25q-27 24 -27 65zM829 104q0 37 27 64t64 27q41 0 65 -27q25 -28 25 -64q0 -38 -26 -64t-64 -26q-36 0 -64 25q-27 24 -27 65zM610 45q0 42 27 66t65 24q37 0 64 -24t27 -66q0 -36 -27 -63t-64 -27q-38 0 -65 27t-27 63z" />
    <glyph glyph-name="uni274A" unicode="&#x274a;" horiz-adv-x="1126" 
d="M532 1069q-59 -28 -125 -40q-61 -11 -143 -11q-70 0 -140 12q-65 11 -130 37v68q60 32 129 43q64 10 141 10q72 0 144 -16q69 -15 124 -37v-66zM1133 1069q-58 -28 -126 -40q-60 -11 -143 -11q-71 0 -142 12q-67 11 -128 37v68q61 30 128 42q60 11 142 11q73 0 143 -16
q69 -16 126 -37v-66zM596 1071q28 -58 40 -126q11 -61 11 -142q0 -69 -12 -140q-11 -67 -37 -131h-68q-32 60 -43 130q-10 64 -10 141q0 71 16 143t37 125h66zM596 1671q28 -58 40 -126q11 -60 11 -142q0 -71 -12 -142q-11 -67 -37 -128h-68q-30 61 -42 128q-11 60 -11 142
q0 72 16 142q16 69 37 126h66zM565 1059q-22 -60 -60 -118t-93 -110q-51 -49 -111 -90q-59 -40 -115 -67l-49 51q22 65 62 120t94 105q50 53 111 92q56 36 112 60zM989 1479q-23 -61 -61 -114q-42 -58 -94 -110q-49 -51 -109 -91q-58 -39 -117 -64l-47 47q22 63 61 120
q36 52 93 109q53 52 111 90q58 37 116 60zM606 1104q57 -21 118 -61q58 -38 110 -93q52 -53 90 -110q40 -59 67 -115l-51 -49q-67 23 -120 61q-55 40 -105 94q-51 49 -92 112q-36 56 -60 112zM186 1528q59 -22 114 -62q58 -42 110 -94q52 -51 91 -108q39 -58 64 -117
l-47 -47q-66 22 -120 60q-52 36 -109 93q-51 51 -90 112q-37 58 -60 116z" />
    <glyph glyph-name="apple" unicode="&#xf8ff;" horiz-adv-x="1738" 
d="M498 1673h-136v135h136v-135zM727 1688h279v-1440h-148v-590h14v109h134v-244h-279v862h145v1169h-14v-1128h-131v1262zM578 1692h133v-2169h-422v135h289v2034zM289 104h-111v134h244v-437h12v447h-145v1440h278v-2020h-278v436zM422 1554v-1169h12v1169h-12zM1038 1690
h269v-88h-185v-2079h-84v2167zM1475 -477v749h-148v1418h234v-2167h-86zM1415 1602v-1246h60v1246h-60z" />
    <glyph glyph-name="uniFB01" unicode="&#xfb01;" horiz-adv-x="1423" 
d="M35 1112h241v176q0 215 112 307q113 93 304 93h215v-142h-229q-77 0 -123 -14q-50 -15 -78 -46q-29 -32 -42 -88q-13 -55 -13 -147v-139h471v-141h-471v-998h-146v998h-241v141zM1079 1112h146v-1139h-146v1139zM1153 1585q45 0 78 -33t33 -77q0 -45 -33 -78t-78 -33
t-78 33t-33 78q0 44 33 77t78 33z" />
    <glyph glyph-name="uniFB02" unicode="&#xfb02;" horiz-adv-x="1423" 
d="M35 1112h241v176q0 215 112 307q113 93 304 93h215v-142h-229q-77 0 -123 -14q-50 -15 -78 -46q-29 -32 -42 -88q-13 -55 -13 -147v-139h471v-141h-471v-998h-146v998h-241v141zM1079 -27v1715h146v-1715h-146z" />
    <glyph glyph-name="uniFD3E" unicode="&#xfd3e;" horiz-adv-x="643" 
d="M496 -477q-88 0 -147 15t-93 54q-35 40 -47 98t-12 140v455q0 43 -7 97q-6 48 -19 79q-13 33 -41 51q-29 19 -95 25v139q68 6 95 24t41 52q13 32 19 78q7 54 7 98v452q0 82 12 141q12 57 47 97q34 39 93 54q62 16 147 16h71v-142h-49q-68 0 -100 -7q-36 -8 -50 -25
q-17 -20 -21 -52q-5 -38 -5 -96v-440q0 -85 -10 -141q-10 -58 -33 -100q-22 -42 -56 -65q-34 -24 -71 -34v41q37 -10 71 -34q33 -23 56 -66q23 -42 33 -100q10 -56 10 -140v-443q0 -58 5 -96q4 -32 21 -52q14 -17 50 -25q32 -7 100 -7h49v-141h-71z" />
    <glyph glyph-name="uniFD3F" unicode="&#xfd3f;" horiz-adv-x="643" 
d="M106 -477h-71v141h49q68 0 100 7q36 8 50 25q17 20 21 52q5 38 5 96v443q0 84 10 140q10 58 33 100q23 43 55 66t72 34v-41q-40 11 -72 34q-33 24 -55 65q-23 42 -33 100q-10 56 -10 141v440q0 58 -5 96q-4 32 -21 52q-14 17 -50 25q-32 7 -100 7h-49v142h71
q85 0 147 -16q59 -15 93 -54q35 -40 47 -97q13 -63 13 -141v-452q0 -52 6 -98t19 -78q14 -35 40 -52q27 -18 96 -24v-139q-67 -6 -96 -25q-26 -18 -40 -51q-13 -31 -19 -79q-6 -46 -6 -97v-455q0 -77 -13 -140q-12 -58 -47 -98q-34 -39 -93 -54t-147 -15z" />
    <glyph glyph-name="uni0627.short" horiz-adv-x="552" 
d="M240 1440h145v-1467h-145v1467z" />
    <glyph glyph-name="uni0627.shortfina" horiz-adv-x="636" 
d="M240 1440h145v-1321h320v-146h-465v1467z" />
    <glyph glyph-name="uni066E.initalt" horiz-adv-x="708" 
d="M-27 119h463v993h146v-1139h-609v146z" />
    <glyph glyph-name="uni066E.medialt" horiz-adv-x="952" 
d="M-27 119h463v993h146v-993h438v-146h-1047v146z" />
    <glyph glyph-name="uni06C3.fina" horiz-adv-x="1091" 
d="M772 -27v994h-211q-74 0 -125 -15q-53 -16 -93 -47q-44 -34 -67 -87q-24 -54 -24 -107v-381h-146v368q0 104 35 180q33 73 105 138q61 52 136 74t155 22h381v-993h241v-146h-387zM465 1305q-46 0 -78 32q-33 33 -33 78t33 78t78 33t78 -33q32 -32 32 -78t-32 -78t-78 -32
zM831 1305q-45 0 -77 32q-33 33 -33 78t33 78t77 33q45 0 78 -33t33 -78t-33 -78q-32 -32 -78 -32z" />
    <glyph glyph-name="uni06BA.init" horiz-adv-x="536" 
d="M-27 119h258v993h146v-1139h-404v146zM299 1323q-45 0 -78 33t-33 78q0 44 33 77t78 33t78 -33t33 -77q0 -45 -33 -78t-78 -33z" />
    <glyph glyph-name="uni06BA.medi" horiz-adv-x="583" 
d="M-27 119h258v993h146v-993h274v-146h-678v146zM297 1323q-45 0 -78 33t-33 78q0 44 33 77t78 33t78 -33t33 -77q0 -45 -33 -78t-78 -33z" />
    <glyph glyph-name="uni06C2.fina" horiz-adv-x="1091" 
d="M772 -27v994h-211q-74 0 -125 -15q-53 -16 -93 -47q-44 -34 -67 -87q-24 -54 -24 -107v-381h-146v368q0 104 35 180q33 73 105 138q61 52 136 74t155 22h381v-993h241v-146h-387zM487 1485q0 128 61 201q59 71 183 71h141v-145h-127q-65 0 -88 -24q-22 -23 -22 -72v-56
h303v-145h-451v170z" />
    <glyph glyph-name="wasle" horiz-adv-x="274" 
d="M25 119h317v-146h-383z" />
    <glyph glyph-name="wasle_alt" horiz-adv-x="438" 
d="M25 119h481v-146h-547z" />
    <glyph glyph-name="uni0654.medi" horiz-adv-x="686" 
d="M129 1413q0 129 60 201t184 72h141v-146h-127q-66 0 -88 -23q-23 -25 -23 -73v-55h304v-146h-451v170z" />
    <glyph glyph-name="uni0654064B" 
d="M-174 61q0 129 60 201t184 72h100v-146h-86q-66 0 -88 -23q-23 -25 -23 -46h263v-146h-410v88zM-254 485l512 74v-110l-512 -74v110zM-256 623l512 73v-110l-512 -74v111z" />
    <glyph glyph-name="uni0654064E" 
d="M-180 61q0 129 60 201t183 72h101v-146h-86q-66 0 -88 -23q-23 -25 -23 -46h262v-146h-409v88zM-256 479l512 74v-115l-512 -73v114z" />
    <glyph glyph-name="uni0654064C" 
d="M-53 485q-4 13 -4 52q0 82 46 137t138 55q69 0 113 -50q43 -49 43 -122q0 -21 -2 -51q-1 -11 -15 -84l-465 -68l-90 236l111 41l57 -156zM-141 61q0 129 60 201t183 72h101v-146h-86q-66 0 -88 -23q-23 -25 -23 -46h262v-146h-409v88zM55 553q0 -36 4 -49l125 18
q-24 -124 -18 -57q6 68 6 80q0 30 -13 50q-13 21 -46 21q-25 0 -41 -16q-17 -17 -17 -47z" />
    <glyph glyph-name="uni0654064F" 
d="M-252 455l166 24q-4 13 -4 53q0 83 46 138t138 55q69 0 113 -50q43 -49 43 -122q0 -21 -2 -51q-1 -11 -15 -84l-473 -68zM-160 61q0 128 61 201q60 72 183 72h100v-146h-86q-66 0 -88 -23t-22 -46h262v-146h-410v88zM23 545q0 -36 4 -45l125 18q-17 -88 -20 -80
q-1 3 1 23q6 68 6 80q0 30 -13 50q-14 21 -46 21q-25 0 -41 -16t-16 -51z" />
    <glyph glyph-name="uni06540652" 
d="M-205 61q0 128 61 201q60 72 183 72h100v-146h-86q-66 0 -88 -23t-22 -46h262v-146h-410v88zM-12 369q-77 0 -123 46q-47 47 -47 140q0 88 51 139t131 51q84 0 129 -52q45 -53 45 -139t-53 -136q-52 -49 -133 -49zM-6 473q26 0 47 14q22 15 22 66q0 47 -21 67
q-20 19 -48 19q-22 0 -42 -16q-22 -17 -22 -66q0 -54 19 -70q17 -14 45 -14z" />
    <glyph glyph-name="uni0654064D" 
d="M-219 -246q0 129 60 201t184 72h100v-146h-86q-66 0 -88 -23q-23 -25 -23 -46h262v-146h-409v88zM-254 -573l512 73v-110l-512 -74v111zM-256 -436l512 74v-111l-512 -74v111z" />
    <glyph glyph-name="uni06550650" 
d="M-219 -246q0 129 60 201t184 72h100v-146h-86q-66 0 -88 -23q-23 -25 -23 -46h262v-146h-409v88zM-256 -438l512 73v-114l-512 -74v115z" />
    <glyph glyph-name="wasla" 
d="M-256 109h113q0 59 53 117q52 57 137 57q105 0 158 -61t53 -148v-101h-514v136zM47 158q-28 0 -47 -19q-18 -18 -18 -30h129q0 5 -17 27t-47 22z" />
    <glyph glyph-name="uni0651064B" 
d="M-111 -27q-50 0 -98 31q-46 29 -61 109l-23 125l115 22l24 -119q7 -34 21 -44q12 -9 29 -9q24 0 41 21q16 20 16 57q0 44 -14 115l116 18l25 -121q5 -22 16 -33q12 -12 31 -12q28 0 40 11q13 12 13 40q0 58 -30 144l120 28q6 -40 15 -75q3 -15 7 -45q3 -23 3 -41
q0 -83 -47 -130t-129 -47q-43 0 -65 19q-20 17 -25 29q-6 -27 -39 -60t-101 -33zM-283 438l512 74v-111l-512 -73v110zM-285 575l512 74v-110l-512 -74v110z" />
    <glyph glyph-name="uni06F4.urdu" horiz-adv-x="1249" 
d="M291 -27v1385h129l330 -336l372 375v-201l-372 -387l-314 328v-1164h-145z" />
    <glyph glyph-name="uni06F7.urdu" horiz-adv-x="1013" 
d="M127 -27v125l553 1260h151l-536 -1239h592v-146h-760z" />
    <glyph glyph-name="acute.case" horiz-adv-x="516" 
d="M162 1704h-160l305 348h213z" />
    <glyph glyph-name="circumflex.case" horiz-adv-x="849" 
d="M856 1704h-174l-254 207l-260 -207h-174l379 348h108z" />
    <glyph glyph-name="dieresis.case" horiz-adv-x="843" 
d="M145 1980q46 0 78 -32q33 -33 33 -78t-33 -78t-78 -33q-44 0 -77 33t-33 78t33 78q32 32 77 32zM698 1980q46 0 78 -32q33 -33 33 -78t-33 -78t-78 -33q-44 0 -77 33t-33 78t33 78q32 32 77 32z" />
    <glyph glyph-name="grave.case" horiz-adv-x="516" 
d="M-4 2052h213l305 -348h-160z" />
    <glyph glyph-name="ring.case" horiz-adv-x="526" 
d="M264 2138q95 0 161 -60q67 -61 67 -157q0 -97 -67 -158q-65 -59 -161 -59q-98 0 -163 59q-66 60 -66 158q0 97 66 157t163 60zM264 2021q-42 0 -71 -26q-31 -28 -31 -74t31 -74q29 -26 71 -26t71 26q30 27 30 74t-30 74q-29 26 -71 26z" />
    <glyph glyph-name="tilde.case" horiz-adv-x="880" 
d="M606 1878q45 0 70 28q24 27 39 107h135q-22 -143 -83 -207q-60 -63 -155 -63q-59 0 -104 23q-48 25 -88 50q-32 20 -76 45q-34 19 -72 19q-44 0 -67 -29q-22 -28 -37 -108h-137q22 144 86 208q62 62 153 62q62 0 107 -23q54 -28 88 -48l76 -48q32 -16 65 -16z" />
    <glyph glyph-name="cedilla.case" horiz-adv-x="505" 
d="M68 -315q48 -20 84 -28q31 -7 61 -7q27 0 48 4q25 5 39 13q15 9 25 22q9 12 9 32q0 33 -27 50q-26 16 -65 16q-49 0 -107 -29l-57 62l127 207h131l-78 -133q31 6 31 9q0 1 -13 1q85 0 140 -46t55 -130q0 -56 -22 -93t-60 -61q-39 -25 -81 -35q-41 -10 -87 -10
q-87 0 -192 37z" />
    <glyph glyph-name="caron.case" horiz-adv-x="849" 
d="M-6 2052h174l256 -207l258 207h174l-377 -348h-110z" />
    <glyph glyph-name="macron.case" horiz-adv-x="731" 
d="M35 1802v135h661v-135h-661z" />
    <glyph glyph-name="breve.case" horiz-adv-x="780" 
d="M748 2060q-27 -356 -359 -356q-334 0 -356 356h137q12 -138 66 -183q53 -44 154 -44q102 0 157 43t67 184h134z" />
    <glyph glyph-name="dotaccent.case" horiz-adv-x="290" 
d="M145 1980q46 0 78 -32q33 -33 33 -78t-33 -78t-78 -33q-44 0 -77 33t-33 78t33 78q32 32 77 32z" />
    <glyph glyph-name="hungarumlaut.case" horiz-adv-x="907" 
d="M162 1704h-160l305 348h213zM555 1704h-160l305 348h211z" />
    </font>
</defs>
</svg>
